Жага помсти (Жага смерті) / Death Wish (2018)

Нові коментарі

Нова тема   Відповісти
Автор Повідомлення
Anonymous 







2019-05-16 00:06  
Жага помсти / Жага смерті / Death Wish (2018)

Жага помсти (Жага смерті) / Death Wish (2018)
"Чистий" український постер:



Жанр: екшн, кримінальний, драма, трилер
Країна: США



Кінокомпанія: Cave 76, Metro-Goldwyn-Mayer (MGM)
Режисер: Елай Рот / Eli Roth
Актори: Брюс Вілліс / Bruce Willis, Вінсент Д'Онофріо / Vincent D'Onofrio, Елізабет Шу / Elisabeth Shue, Каміла Морроне / Camila Morrone, Дін Норріс / Dean Norris, Беу Кнап / Beau Knapp, Кімберлі Еліс / Kimberly Elise, Лен Каріу / Len Cariou, Джек Кесі / Jack Kesy, Андреас Аперґіс / Andreas Apergis та інші.

Сюжет:
Добропорядний сім'янин перетворюється на машину для вбивств, після того, як його дружина і дочка стають жертвами вуличної банди.
Офіційний український трейлер з кінотеатральним дубляжем:


Рейтинг MPAA: R - особам до 17 років обов'язкова присутність батьків або дорослого опікуна
Вікова категорія: 18+


Тривалість: 01:46:43
Якість:

Відео:
кодек:
розмір кадру: 720x304
бітрейт: 1563 Кб/с

Аудіо:
мова: українська
переклад: багатоголосий закадровий
кодек: 2.0
бітрейт: 192 кб/с
Info
Код:

General
Complete name               : Death Wish (2018) [Ukr] [Hurtom].avi
Format                      : AVI
Format/Info                 : Audio Video Interleave
File size                   : 1.32 GiB
Duration                    : 1 h 46 min
Overall bit rate            : 1 764 kb/s
Movie name                  : Жага помсти / Жага смерті / Death Wish (2018) [Ukr] [Hurtom]
Writing application         : VirtualDubModUkr 1.5.10.2 (build 2542/release)
Writing library             : VirtualDubMod build 2542/release

Video
ID                          : 0
Format                      : MPEG-4 Visual
Format profile              : Advanced [email protected]
Format settings             : BVOP1 / Custom Matrix
Format settings, BVOP       : 1
Format settings, QPel       : No
Format settings, GMC        : No warppoints
Format settings, Matrix     : Custom
Codec ID                    :
Codec ID/Hint               :
Duration                    : 1 h 46 min
Bit rate                    : 1 563 kb/s
Width                       : 720 pixels
Height                      : 304 pixels
Display aspect ratio        : 2.35:1
Frame rate                  : 23.976 (24000/1001) FPS
Color space                 : YUV
Chroma subsampling          : 4:2:0
Bit depth                   : 8 bits
Scan type                   : Progressive
Compression mode            : Lossy
Bits/(Pixel*Frame)          : 0.298
Stream size                 : 1.16 GiB (89%)
Writing library             : 73

Audio
ID                          : 1
Format                      : AC-3
Format/Info                 : Audio Coding 3
Commercial name             : Dolby Digital
Codec ID                    : 2000
Duration                    : 1 h 46 min
Bit rate mode               : Constant
Bit rate                    : 192 kb/s
Channel(s)                  : 2 channels
Channel layout              : L R
Sampling rate               : 48.0 kHz
Frame rate                  : 31.250 FPS (1536 SPF)
Bit depth                   : 16 bits
Compression mode            : Lossy
Stream size                 : 147 MiB (11%)
Alignment                   : Split across interleaves
Interleave, duration        : 42  ms (1.00 video frame)
Interleave, preload duratio : 500  ms
Title                       : UKR MVO [NLO-TV]
Service kind                : Complete Main



Джерело: &
Подяка за українську доріжку: Bohdan237, Sando7.


 Трекер:    Зареєстрований   

Завантажити / скачати фільм українською



відео для новачків



 Зареєстрований:   2019-05-16 00:06
 Розмір:   1.32 GB 
 Оцінка фільму:   9.8/10 (Голосів: 29)
 ЗАЛИШАЙТЕСЬ ЯКОМОГА ДОВШЕ НА РОЗДАЧІ! ЗАВАНТАЖИВ САМ - ДАЙ ЗАВАНТАЖИТИ ІНШИМ!
   
Coren 
Новенький


З нами з: 09.11.16
Востаннє: 13.11.19
Повідомлень: 14

2019-05-16 09:40  
Ремейк? Треба подивитися. Брюс має виглядати переконливішим, ніж Чарлі "Покерфейс" Бронсон.
+380954897458 
VIP


З нами з: 02.06.17
Востаннє: 13.11.19
Повідомлень: 474

2019-05-16 21:03  
Coren
Ні в якому разі Брюс не переконливіший за Бронсона. Чарлі- це легенда, монумент, святиня, зазіхати на яку є гріховним дійством. Хоч Брюс і талановитіший актор і суперпопулярний екшен-герой, але йому ніколи не досягти рівня Чарлі. Надто низьке його падіння. Такі фільми, які час від часу витягають його з багна, лише поглиблюють прірву між ними, так само, як і наш смуток, бо ми його і досі любимо, чорти б його забрали!

merime 
Свій


З нами з: 14.02.12
Востаннє: 13.11.19
Повідомлень: 63

2019-05-19 22:13  
Хороший бойовик. Усе в кращих традиціях. Герой, охоплений помстою, шукає кривдників і карає їх.
Victor_Scythian 
Забанено
Забанено


З нами з: 06.01.17
Востаннє: 22.10.19
Повідомлень: 287

2019-05-20 10:52  
10/10.
Дякую

Ваш часовий пояс: GMT + 2 Години

Нова тема   Відповісти