Велика втеча / The Great Escape (1963) Remux 1080p 2xUkr/Eng | Sub Ukr/Eng

Нові коментарі

Нова тема   Відповісти
Автор Повідомлення
MakRA 
Поважний учасник


З нами з: 11.11.18
Востаннє: 23.05.19
Повідомлень: 199

2019-05-16 01:03  
Велика втеча / The Great Escape (1963) Remux 1080p 2xUkr/Eng | Sub Ukr/Eng

Велика втеча / The Great Escape (1963) Remux 1080p 2xUkr/Eng | Sub Ukr/Eng

Альтернативні обкладинки:






Жанр: пригодницький, драма, історичний, трилер, воєнний
Країна: США



Кінокомпанія: The Mirisch Company, Alpha
Режисер: Джон Стьорджес [John Sturges]
Актори: Стів МакКвін [Steve McQueen], Джеймс Ґарнер [James Garner], Річард Еттенборо [Richard Attenborough], Джеймс Дональд [James Donald], Чарльз Бронсон [Charles Bronson], Дональд Плізенс [Donald Pleasence], Джеймс Кобурн [James Coburn], Ганнес Мессемер [Hannes Messemer], Девід МакКаллум [David McCallum], Ґордон Джексон [Gordon Jackson].

Сюжет:
Військово-історична драма розповідає про те, як американські, британські та канадські військовополонені зуміли здійснити масову втечу з німецького концтабору під час Другої світової війни.
Фільм поставлений по книзі Пола Брікхілла, заснованій на дійсних подіях


Тривалість: 02:52:13
Якість: Remux 1080p
Відео:
кодек:
розмір кадру: 1920x1080
бітрейт: 18,2 Мб/с

Аудіо # 1:
мова: українська
переклад: багатоголосий закадровий
кодек: 2.0
бітрейт: 192 кб/с

Аудіо # 2:
мова: українська
переклад: двоголосий закадровий
кодек: 2.0
бітрейт: 192 кб/с
Про озвучення:
Ролі озвучили:Михайло Жонін і Олесь Гімбаржевський.
Аудіо # 3:
мова: англійська
переклад: оригінал
кодек: 2.0
бітрейт: 192 кб/с

Аудіо # 4:
мова: англійська
переклад: оригінал
кодек: -HD MA 5.1
бітрейт: 3990 кб/с

Субтитри # 1: (Full)
мова: українська
тип: програмні (м'які)
формат: *.srt

Субтитри # 2-3: (Full / SDH)
мова: англійська
тип: програмні (м'які)
формат: *.srt

Збережено оригінальні розділи, як на Blu-ray.
Info
General
Unique ID : 238138657954609908444710346318253688772 (0xB327D65483DA291CB37FD05540F487C4)
Complete name : E:\Військовий, драма\The Great Escape (1963) Remux 1080p 2xUkrEng Sub UkrEng [Hurtom].
Format :
Format version : Version 4 / Version 2
File size : 27.4 GiB
Duration : 2 h 52 min
Overall bit rate mode : Variable
Overall bit rate : 22.8 Mb/s
Movie name : Велика втеча / The Great Escape (1963) Remux 1080p 2xUkr/Eng | Sub Ukr/Eng [Hurtom]
Encoded date : UTC 2019-05-15 06:25:05
Writing application : v25.0.0 ('Prog Noir') 64-bit
Writing library : libebml v1.3.6 + v1.4.9
Cover : Yes
Attachments : cover.jpg

Video
ID : 1
Format : AVC
Format/Info : Advanced Video Codec
Format profile : [email protected]
Format settings, CABAC : Yes
Format settings, RefFrames : 2 frames
Format settings, GOP : M=1, N=10
Codec ID : V_MPEG4/ISO/AVC
Duration : 2 h 52 min
Bit rate mode : Variable
Bit rate : 18.2 Mb/s
Width : 1 920 pixels
Height : 1 080 pixels
Display aspect ratio : 16:9
Frame rate mode : Constant
Frame rate : 23.976 (24000/1001) FPS
Color space : YUV
Chroma subsampling : 4:2:0
Bit depth : 8 bits
Scan type : Progressive
Bits/(Pixel*Frame) : 0.366
Stream size : 21.9 GiB (80%)
Title : The Great Escape (1963) Remux 1080p 2xUkr/Eng | Sub Ukr/Eng [Hurtom]
Language : Ukrainian
Default : Yes
Forced : Yes

Audio #1
ID : 2
Format : AC-3
Format/Info : Audio Coding 3
Format settings, Endianness : Big
Codec ID : A_AC3
Duration : 2 h 52 min
Bit rate mode : Constant
Bit rate : 192 kb/s
Channel(s) : 2 channels
Channel positions : Front: L R
Sampling rate : 48.0 kHz
Frame rate : 31.250 FPS (1536 SPF)
Bit depth : 16 bits
Compression mode : Lossy
Stream size : 236 MiB (1%)
Title : MVO [AMC]
Language : Ukrainian
Service kind : Complete Main
Default : Yes
Forced : Yes

Audio #2
ID : 3
Format : AC-3
Format/Info : Audio Coding 3
Format settings, Endianness : Big
Codec ID : A_AC3
Duration : 2 h 52 min
Bit rate mode : Constant
Bit rate : 192 kb/s
Channel(s) : 2 channels
Channel positions : Front: L R
Sampling rate : 48.0 kHz
Frame rate : 31.250 FPS (1536 SPF)
Bit depth : 16 bits
Compression mode : Lossy
Stream size : 237 MiB (1%)
Title : DVO [1+1]
Language : Ukrainian
Service kind : Complete Main
Default : No
Forced : No

Audio #3
ID : 4
Format : AC-3
Format/Info : Audio Coding 3
Format settings, Endianness : Big
Codec ID : A_AC3
Duration : 2 h 52 min
Bit rate mode : Constant
Bit rate : 192 kb/s
Channel(s) : 2 channels
Channel positions : Front: L R
Sampling rate : 48.0 kHz
Frame rate : 31.250 FPS (1536 SPF)
Bit depth : 16 bits
Compression mode : Lossy
Stream size : 237 MiB (1%)
Title : Original 2.0
Language : English
Service kind : Complete Main
Default : No
Forced : No

Audio #4
ID : 5
Format :
Format/Info : Digital Theater Systems
Format profile : MA / Core
Mode : 16
Format settings, Endianness : Big
Codec ID : A_DTS
Duration : 2 h 52 min
Bit rate mode : Variable / Constant
Bit rate : 3 990 kb/s / 1 509 kb/s
Channel(s) : 6 channels
Channel positions : Front: L C R, Side: L R, LFE
Sampling rate : 48.0 kHz
Frame rate : 93.750 FPS (512 SPF)
Bit depth : 24 bits
Compression mode : Lossless / Lossy
Stream size : 4.80 GiB (18%)
Title : Original -HD MA 5.1
Language : English
Default : No
Forced : No

Text #1
ID : 6
Format : UTF-8
Codec ID : S_TEXT/UTF8
Codec ID/Info : UTF-8 Plain Text
Duration : 2 h 52 min
Bit rate : 58 b/s
Count of elements : 1768
Stream size : 73.7 KiB (0%)
Title : Ukr (Full)
Language : Ukrainian
Default : Yes
Forced : No

Text #2
ID : 7
Format : UTF-8
Codec ID : S_TEXT/UTF8
Codec ID/Info : UTF-8 Plain Text
Duration : 2 h 46 min
Bit rate : 42 b/s
Count of elements : 1398
Stream size : 51.4 KiB (0%)
Title : Eng (Full)
Language : English
Default : No
Forced : No

Text #3
ID : 8
Format : UTF-8
Codec ID : S_TEXT/UTF8
Codec ID/Info : UTF-8 Plain Text
Duration : 2 h 49 min
Bit rate : 44 b/s
Count of elements : 1483
Stream size : 54.6 KiB (0%)
Title : Eng (SDH)
Language : English
Default : No
Forced : No

Menu
00:00:00.000 : en:Main Titles
00:02:37.991 : en:The Prisoners Arrive
00:10:43.309 : en:Escape Attempt #1
00:18:48.127 : en:The Blind Spot
00:22:11.371 : en:To The Cooler
00:25:59.766 : en:Barlett's Arrival
00:29:39.444 : en:The Objective
00:33:18.329 : en:The Escape Committee
00:36:45.244 : en:Forger & Scrounger
00:40:32.138 : en:Stealing Steel
00:42:23.707 : en:Tunneling Begins.
00:45:22.386 : en:Spot Inspection
00:46:56.814 : en:Hilts & Ives' Plan
00:56:45.193 : en:Come All Ye Faithful
00:58:07.192 : en:Tempting The Guard
01:10:20.049 : en:Dealing For A Camera
01:12:18.751 : en:Tunnel Collapse
01:17:51.541 : en:Independence Day
01:25:36.756 : en:Finding "Tom"
01:31:17.305 : en:Doubts Abut Blythe
01:44:44.569 : en:The Escape Begins
01:53:42.398 : en:20 Feet Short
02:03:10.132 : en:Discovered!
02:15:58.817 : en:The Chase
02:20:06.314 : en:Death At The Station
02:24:37.710 : en:Taking The Plane
02:28:40.661 : en:Crash Landing
02:31:14.398 : en:Motorcycle Pursuit
02:33:19.023 : en:The Resistance
02:40:29.620 : en:The Massacre
02:48:13.374 : en:Back To The Cooler
02:50:09.449 : en:End Titles
Скріншоти
Джерело: &
Особиста оцінка: 10 - без зайвих вагань рекомендую всім!
За запис з amc дякую п. slavik_v_z
За відео та доріжку від 1+1 дякую п. karvai0, п. olgaya


Золотий реліз (завантажене не впливає на рейтинг)
 Трекер:    Зареєстрований   

Завантажити / скачати фільм українською



відео для новачків



 Зареєстрований:   2019-05-16 01:03
 Розмір:   27.38 GB 
 Оцінка фільму:   10/10 (Голосів: 7)
   
Інші релізи
   Велика втеча / The Great Escape (1963) Ukr/Eng sokeel  0 / 0   1.7 GB   2016-12-12 18:13 
   Велика втеча / The Great Escape (1963) 2xUkr/Eng Arsenfpu  3 / 0   2.83 GB   2016-09-01 21:19 
   Велика втеча / The Great Escape (1963) Ukr/Eng | Sub Ukr/Eng karvai0  3 / 0   2.9 GB   2013-06-19 14:06 
Ваш часовий пояс: GMT + 2 Години

Нова тема   Відповісти