Тім Талер, або Проданий сміх / Timm Thaler oder das verkaufte Lachen (2017) Remux 1080p Ukr/Ger | Sub Eng

Нові коментарі

Нова тема   Відповісти
Автор Повідомлення
MakRA 
VIP


З нами з: 10.11.18
Востаннє: 20.11.19
Повідомлень: 531

2019-05-15 22:19  
Тім Талер, або Проданий сміх / Timm Thaler oder das verkaufte Lachen (2017) Remux 1080p Ukr/Ger | Sub Eng

Тім Талер, або Проданий сміх / Timm Thaler oder das verkaufte Lachen (2017) Remux 1080p Ukr/Ger | Sub Eng

Українські постери:





Жанр: пригодницький, комедія, драма, фентезі
Країна: Німеччина



Кінокомпанія: Constantin Film, Rolize GmbH & Co., Zweites Deutsches Fernsehen (ZDF)
Режисер: Андреас Дрезен [Andreas Dresen]
Актори: Арвед Фрізе [Arved Friese], Юстус фон Донані [Justus von Dohnányi], Жюль Герман [Jule Hermann], Чарлі Гюбнер [Charly Hübner], Надя Уль [Nadja Uhl], Бьярне Медел [Bjarne Mädel], Аксель Праль [Axel Prahl], Андреас Шмідт [Axel Prahl], Харальд Шмідт [Harald Schmidt], Томас Орнер [Thomas Ohrner].

Сюжет:
Юний хлопчик Тім Таллер живе разом зі своїм батьком на маленькій вуличці в німецькому місті. У ті часи, а саме у двадцяті роки ХХ століття, багато німців не були заможними, так і Тім із батьком жили серед не найкращих обставин. Не дивлячись на це, хлопчик по-справжньому щасливий. Й у нього є такий сміх, якого немає більше ні в кого, ні з ким не переплутаєш! Цей сміх у Тіма Таллера неймовірно заразливий – варто йому лише почати реготати, як все навколо теж почнуть триматися за животи. Будучи на скачках, хлопчик отримав дивну, але дуже вигідну пропозицію від загадкового чоловіка – продати свій сміх на можливість вигравати будь-які суперечки.

Цікаве про фільм:

- Сюжет кінострічки ґрунтований на казково-філософській повісті німецького письменника Джеймса Крюса. Повість є тільки першою частиною трилогії про Тіма Талера, куди входять також повісті "Ляльки Тіма Талера, або Продане людинолюбство" (1977) і "Нелє, або Вундеркінд" (1986).
- Актор Томас Орнер грав Тімма Талера в серіалі 1979 року.


Тривалість: 01:42:28
Якість: Remux 1080p
Відео:
кодек:
розмір кадру: 1920 х 1080
бітрейт: 27 Мб/с

Аудіо # 1:
мова: українська
переклад: професійний дубльований | студія Cinema Sound Production
кодек: 5.1
бітрейт: 384 кб/с

Аудіо # 2:
мова: німецька
переклад: оригінал
кодек: -HD MA 5.1
бітрейт: 2046 кб/с

Аудіо # 3:
мова: німецька
переклад: оригінал
кодек: 5.1
бітрейт: 448 кб/с

Субтитри:
мова: англійська
тип: програмні (м'які)
формат: *.srt

Збережено оригінальні розділи, як на Blu-ray.
Info
General
Unique ID : 282914497402676752258256789794715426755 (0xD4D759A856EE1CF1509B8B7D8CBD5FC3)
Complete name : E:\! Моя роздача\Timm Thaler oder das verkaufte Lachen (2017) Remux 1080p UkrGer Sub Eng [Hurtom].
Format :
Format version : Version 4 / Version 2
File size : 21.4 GiB
Duration : 1 h 42 min
Overall bit rate mode : Variable
Overall bit rate : 29.9 Mb/s
Movie name : Тім Талер, або Проданий сміх / Timm Thaler oder das verkaufte Lachen (2017) Remux 1080p Ukr/Ger | Sub Eng [Hurtom]
Encoded date : UTC 2019-05-15 16:19:55
Writing application : v25.0.0 ('Prog Noir') 64-bit
Writing library : libebml v1.3.6 + v1.4.9
Attachments : poster.jpg

Video
ID : 1
Format : AVC
Format/Info : Advanced Video Codec
Format profile : [email protected]
Format settings, CABAC : Yes
Format settings, RefFrames : 4 frames
Codec ID : V_MPEG4/ISO/AVC
Duration : 1 h 42 min
Bit rate mode : Variable
Bit rate : 27.0 Mb/s
Maximum bit rate : 35.0 Mb/s
Width : 1 920 pixels
Height : 1 080 pixels
Display aspect ratio : 16:9
Frame rate mode : Constant
Frame rate : 24.000 FPS
Color space : YUV
Chroma subsampling : 4:2:0
Bit depth : 8 bits
Scan type : Progressive
Bits/(Pixel*Frame) : 0.542
Stream size : 19.3 GiB (90%)
Title : Timm Thaler oder das verkaufte Lachen (2017) Remux 1080p Ukr/Ger | Sub Eng [Hurtom]
Language : Ukrainian
Default : Yes
Forced : Yes

Audio #1
ID : 2
Format : AC-3
Format/Info : Audio Coding 3
Format settings, Endianness : Big
Codec ID : A_AC3
Duration : 1 h 42 min
Bit rate mode : Constant
Bit rate : 384 kb/s
Channel(s) : 6 channels
Channel positions : Front: L C R, Side: L R, LFE
Sampling rate : 48.0 kHz
Frame rate : 31.250 FPS (1536 SPF)
Bit depth : 16 bits
Compression mode : Lossy
Stream size : 281 MiB (1%)
Title : DUB | студія Cinema Sound Production
Language : Ukrainian
Service kind : Complete Main
Default : Yes
Forced : Yes

Audio #2
ID : 3
Format :
Format/Info : Digital Theater Systems
Format profile : HRA / Core
Mode : 16
Format settings, Endianness : Big
Codec ID : A_DTS
Duration : 1 h 42 min
Bit rate mode : Constant
Bit rate : 2 046 kb/s / 1 509 kb/s
Channel(s) : 6 channels
Channel positions : Front: L C R, Side: L R, LFE
Sampling rate : 48.0 kHz
Frame rate : 93.750 FPS (512 SPF)
Bit depth : 24 bits
Compression mode : Lossy
Stream size : 1.46 GiB (7%)
Title : Original -HD MA 5.1
Language : German
Default : No
Forced : No

Audio #3
ID : 4
Format : AC-3
Format/Info : Audio Coding 3
Format settings, Endianness : Big
Codec ID : A_AC3
Duration : 1 h 42 min
Bit rate mode : Constant
Bit rate : 448 kb/s
Channel(s) : 6 channels
Channel positions : Front: L C R, Side: L R, LFE
Sampling rate : 48.0 kHz
Frame rate : 31.250 FPS (1536 SPF)
Bit depth : 16 bits
Compression mode : Lossy
Stream size : 328 MiB (1%)
Title : Original 5.1
Language : German
Service kind : Complete Main
Default : No
Forced : No

Text
ID : 5
Format : UTF-8
Codec ID : S_TEXT/UTF8
Codec ID/Info : UTF-8 Plain Text
Duration : 1 h 41 min
Bit rate : 52 b/s
Count of elements : 1221
Stream size : 39.0 KiB (0%)
Title : Full
Language : English
Default : No
Forced : No

Menu
00:00:00.000 : de:Глава 01
00:03:51.250 : de:Глава 02
00:08:39.458 : de:Глава 03
00:13:12.708 : de:Глава 04
00:17:29.625 : de:Глава 05
00:22:08.458 : de:Глава 06
00:28:09.250 : de:Глава 07
00:33:06.042 : de:Глава 08
00:38:36.792 : de:Глава 09
00:44:47.625 : de:Глава 10
00:52:13.125 : de:Глава 11
00:57:46.667 : de:Глава 12
01:04:50.625 : de:Глава 13
01:08:37.833 : de:Глава 14
01:13:37.625 : de:Глава 15
01:17:57.542 : de:Глава 16
01:23:56.500 : de:Глава 17
01:28:43.917 : de:Глава 18
01:33:45.083 : de:Глава 19
01:36:39.958 : de:Глава 20
Скріншоти
Джерело: &
Особиста оцінка: 10 - без зайвих вагань рекомендую всім!


Золотий реліз (завантажене не впливає на рейтинг)
 Трекер:    Зареєстрований   

Завантажити / скачати фільм українською



відео для новачків



 Зареєстрований:   2019-05-15 22:19
 Розмір:   21.38 GB 
 Оцінка фільму:   10/10 (Голосів: 10)
   
Soncezahyst 
Частий відвідувач


З нами з: 12.05.19
Востаннє: 20.11.19
Повідомлень: 38

2019-05-23 11:06  
Супер. Рекомендую! Графiка , та все iнше на високому рiвнi
Oleksa9 
VIP


З нами з: 17.05.12
Востаннє: 20.11.19
Повідомлень: 386

2019-06-04 19:31  
Почюваються, смачьні, річь, хочють, щьо, чюв, щє, чєкай, щясти, навіщьо, нічього, якщьо, чюдова, тимчясово, затискачями, щьодня, хочя б, чяс, чі, чярівна, прощявай, щіро, сонечько, дівчяток, чюдове, регочю, автоматичьно, щєнт, мчю, чюма, медичьне, безлічь, вдачя, тисячь, нещясний, чьотири. болячє, начювайтеся
черв'як -> хробак,
імена не відмінюються за звертання.

Ваш часовий пояс: GMT + 2 Години

Нова тема   Відповісти