Майлз із майбутнього / Miles from Tomorrowland (Сезон 2, 23 серії з 24) (2017) 720p Ukr/Eng

Нові коментарі

Нова тема   Відповісти
Автор Повідомлення
sergiyko.5 
VIP


З нами з: 25.02.16
Востаннє: 22.05.19
Повідомлень: 2288

2019-05-15 22:54  


Майлз із майбутнього / Miles from Tomorrowland (Сезон 2) (2017) 720p Ukr/Eng

Майлз із майбутнього / Miles from Tomorrowland (Сезон 2, 23 серії з 24) (2017) 720p Ukr/Eng

Жанр: мультсеріал, дитячий, пригодницький
Країна: США
Кінокомпанія: Disney
Режисер: Джон Енг / John Eng, Мішель Кенні / Michael Daedalus Kenny...

Українською ролі озвучували:
Майлз - Арсен Шавлюк
Лоретта - Вероніка Лук'яненко
Фібі - Людмила Ардельян
Лео - Володимир Паляниця
Мерк - Володимир Канівець
Стелла - Олена Борозенець
Вотсон, Крік - Максим Кондратюк
Зайлон - В'ячеслав Дудко

Режисер дубляжу: Людмила Ардельян
Перекладач: Катерина Щепковська
Переклад пісень: Катерина Щепковська
Музичний керівник: Тетяна Піроженко


Сюжет:
Майлз із майбутнього - неймовірно цікаві пригоди родини міжгалактичних мандрівників: мами, тата та двох дітлахів. Мама Фібі - капітан корабля, батько Лео механік та інженер. У команді також старша сестра Лоретта, фахівець із техніки, та домашній улюбленець – робостраус Мерк. Сам Майлз зовсім юний, допитливий і дуже веселий. Разом з героями глядачі побувають у космосі, проведуть дослідження нової галактики. У легкій і захоплюючій формі мультсеріалу представлені різноманітні наукові факти зі сфери позаземного простору, зустріч із мешканцями інших світів, вивчення космічних кораблів та надсучасних гаджетів.




Тривалість: 1 серія: 23:02 (цілком серій: 23 з 24)
Якість:

Відео: кодек: розмір кадру: 1280x720 бітрейт: 3400 кб/с
Аудіо #1: мова: українська переклад: професійний дубльований кодек: 2.0 бітрейт: 192 кб/с
Аудіо #2: мова: англійська переклад: оригінал кодек: 2.0 бітрейт: 192 кб/с
Озвучення:
Перелік серій
01.Galactech. Captain Miles-The Search for Spot
02.The Blobbysitters-Astro Cavers
03.Galactech. How to Build a Robot Pet-Career Day
04.Galloping Groundshakers-Galactech. March of the Robo Penguins
05.The Adventures of Jet Retrograde-The Tiny Aliens
06.Galactech. The Galactech Grab-Galactech. An Admiral Rescue
07.Galaxias Quest-Galactech. Mission to the Sun
08.The First Day of Galactic School-Miles Underwater
09.The Galactic Fair-Unfair Getaway
10.Building Day-Galactech. Flight of the Iotas
11.Galactech. Still Rocketing-Merc's Night Out
12.Space Junkers-Help Us, Jet Retrograde
13.Blackout on Bloppsburgh-The Robot Thief
14.Back in the Groove-Saving Lumaro
15.Galactech. The S'Leet Heist-Galactech. The S'Leet Fleet
16.Once in a Blue Moon-The Queen Gemma Dilemma
17.Galactech. The Mystery of the Dinosaurs
18.Who Stole The Dionsaur-Nine Minutes Till Bedtime
19.Chasing the Stormchaser-Galactech. Loretta's Lost BraceLex
20.Gamechangers-Goon Baby Goon
21.Beneath Europa-Callistos On Ice
22.Galactech.The Space Trader Strikes.Back-Galactech.The Vanishing Callistos
23.Galactech.The Search for the Plectrix-Robo-Monkey Business
24.Connect and Protect
Інформація про файл:
General
Unique ID : 281181061522985521827548177734197373723 (0xD38980AB959DB984EA6804C34D48EB1B)
Complete name : G:\Torrents2\MULT\MuSERIAL\Miles from Tomorrowland S02 720p\S02E01.Galactech Captain Miles-The Search for Spot.720p..
Format :
Format version : Version 4
File size : 633 MiB
Duration : 23 min 2 s
Overall bit rate : 3 842 kb/s
Movie name : Miles from Tomorrowland S02 720p by sergiyko
Encoded date : UTC 2019-05-10 11:14:43
Writing application : v33.1.0 ('Primrose') 64-bit
Writing library : libebml v1.3.7 + v1.5.0

Video
ID : 1
Format : AVC
Format/Info : Advanced Video Codec
Format profile : [email protected]
Format settings : CABAC / 2 Ref Frames
Format settings, CABAC : Yes
Format settings, Reference : 2 frames
Codec ID : V_MPEG4/ISO/AVC
Duration : 23 min 2 s
Bit rate : 3 360 kb/s
Width : 1 280 pixels
Height : 720 pixels
Display aspect ratio : 16:9
Frame rate mode : Constant
Frame rate : 25.000 FPS
Original frame rate : 24.000 FPS
Color space : YUV
Chroma subsampling : 4:2:0
Bit depth : 8 bits
Scan type : Progressive
Bits/(Pixel*Frame) : 0.146
Stream size : 570 MiB (90%)
Title : S02E01.Galactech Captain Miles-The Search for Spot
Writing library : core 148 r2579M 73ae2d1
Encoding settings : cabac=1 / ref=2 / deblock=1:0:0 / analyse=0x3:0x113 / me=hex / subme=2 / psy=1 / psy_rd=1.00:0.00 / mixed_ref=0 / me_range=16 / chroma_me=1 / trellis=0 / 8x8dct=1 / cqm=0 / deadzone=21,11 / fast_pskip=1 / chroma_qp_offset=0 / threads=4 / lookahead_threads=1 / sliced_threads=0 / nr=250 / decimate=1 / interlaced=0 / bluray_compat=0 / stitchable=1 / constrained_intra=0 / bframes=0 / weightp=1 / keyint=250 / keyint_min=24 / scenecut=40 / intra_refresh=0 / rc_lookahead=10 / rc=2pass / mbtree=1 / bitrate=3360 / ratetol=1.0 / qcomp=0.60 / qpmin=5 / qpmax=69 / qpstep=4 / cplxblur=20.0 / qblur=0.5 / ip_ratio=1.40 / aq=1:1.00
Language : English
Default : Yes
Forced : No

Audio #1
ID : 2
Format : AC-3
Format/Info : Audio Coding 3
Commercial name : Dolby Digital
Codec ID : A_AC3
Duration : 23 min 2 s
Bit rate mode : Constant
Bit rate : 192 kb/s
Channel(s) : 2 channels
Channel layout : L R
Sampling rate : 48.0 kHz
Frame rate : 31.250 FPS (1536 SPF)
Bit depth : 16 bits
Compression mode : Lossy
Stream size : 31.6 MiB (5%)
Title : DUB 2ch | ПлюсПлюс
Language : Ukrainian
Service kind : Complete Main
Default : Yes
Forced : Yes

Audio #2
ID : 3
Format : AC-3
Format/Info : Audio Coding 3
Commercial name : Dolby Digital
Codec ID : A_AC3
Duration : 23 min 2 s
Bit rate mode : Constant
Bit rate : 192 kb/s
Channel(s) : 2 channels
Channel layout : L R
Sampling rate : 48.0 kHz
Frame rate : 31.250 FPS (1536 SPF)
Bit depth : 16 bits
Compression mode : Lossy
Stream size : 31.6 MiB (5%)
Title : Original
Language : English
Service kind : Complete Main
Default : No
Forced : No



Автор запису та ріпу: sergiyko


Бронзовий реліз (на рейтинг впливає 75% завантаженого)
 Трекер:    Зареєстрований   

Завантажити / скачати мультфільм українською



відео для новачків



 Зареєстрований:   2019-05-15 22:54
 Розмір:   14.23 GB 
 Оцінка мультсеріалу:   10/10 (Голосів: 3)
   
Ваш часовий пояс: GMT + 2 Години

Нова тема   Відповісти