Дванадцятий (The 12th Man) / Den 12. mann (2017) 720p Ukr/Nor | Sub Eng

Нові коментарі

Нова тема   Відповісти
Автор Повідомлення
Anonymous 







2019-05-15 15:32  
Дванадцятий / The 12th Man / Den 12. mann (2017) 720p Ukr/Nor | Sub Eng

Дванадцятий (The 12th Man) / Den 12. mann (2017) 720p Ukr/Nor | Sub Eng
Оригінальний постер:



Жанр: воєнний, драма, історичний, трилер
Країна: Норвегія



Кінокомпанія: Nordisk Film Production AS, Zwart Arbeid
Режисер: Гаральд Цварт
Актори: Томас Ґуллестад, Джонатан Ріс-Маєрс, Марі Блокхус, Веґар Гоел, Гокон Т. Нільсен та інші

Сюжет:
Група бійців норвезького опору отримує завдання дістатися до північно-західного норвезького узбережжя на судні "Браттхольм" і зробити диверсію на одній з німецьких авіаційних баз. Але місія зазнала фіаско ще у морі: судно було атаковане німецьким кораблем і потоплено. Єдиною людиною, якій вдалося врятуватися, виявився Ян Болсруд. Йому пощастило дістатися до берега, далі він намагався бігти у бік шведського кордону. Переслідуваний гестапо, Болсруд шукає притулок в горах. Тут його наздоганяє снігова буря, він ховається у печері, яка виявляється смертельною пасткою.
Офіційний оригінальний трейлер:

Вікова категорія: 12+

Тривалість: 02:15:51
Якість: 720p

Відео:
кодек:
розмір кадру: 1280 х 536
бітрейт: 5114 кб/с

Аудіо # 1:
мова: українська
переклад: багатоголосий закадровий
кодек: 2.0 [стерео]
бітрейт: 192 кб/с

Аудіо # 2:
мова: норвезька
переклад: оригінал
кодек: 5.1
бітрейт: 640 кб/с

Субтитри:
мова: англійська
тип: програмні (м'які)
формат: *.srt

Збережено оригінальні розділи, як на Blu-ray
Info
Код:

Complete name               : The 12th Man (Den 12. mann) (2017) [Ukr,Nor sub.Eng] 720p [Hurtom].
Format                      :
Format version              : Version 4
File size                   : 5.64 GiB
Duration                    : 2 h 15 min
Overall bit rate            : 5 948 kb/s
Movie name                  : Дванадцятий / The 12th Man / Den 12. mann (2017) [Ukr,Nor sub.Eng] 720p [Hurtom]
Encoded date                : UTC 2019-05-15 14:29:14
Writing application         : v33.1.0 ('Primrose') 64-bit
Writing library             : libebml v1.3.7 + v1.5.0
Cover                       : Yes
Attachments                 : cover.jpg

Video
ID                          : 1
Format                      : AVC
Format/Info                 : Advanced Video Codec
Format profile              : [email protected]
Format settings             : CABAC / 12 Ref Frames
Format settings, CABAC      : Yes
Format settings, Reference  : 12 frames
Codec ID                    : V_MPEG4/ISO/AVC
Duration                    : 2 h 15 min
Bit rate                    : 5 114 kb/s
Width                       : 1 280 pixels
Height                      : 536 pixels
Display aspect ratio        : 2.40:1
Frame rate mode             : Constant
Frame rate                  : 24.000 FPS
Color space                 : YUV
Chroma subsampling          : 4:2:0
Bit depth                   : 8 bits
Scan type                   : Progressive
Bits/(Pixel*Frame)          : 0.311
Stream size                 : 4.85 GiB (86%)
Title                       : Дванадцятий / The 12th Man / Den 12. mann (2017) 720p
Writing library             : core 142 r2431+42 c69a006 tMod [[email protected]:2:0 X86_64]
Encoding settings           : cabac=1 / ref=12 / deblock=1:-3:-3 / analyse=0x3:0x113 / me=umh / subme=10 / psy=1 / fade_compensate=0.00 / psy_rd=1.00:0.05 / mixed_ref=1 / me_range=32 / chroma_me=1 / trellis=2 / 8x8dct=1 / cqm=0 / deadzone=21,11 / fast_pskip=0 / chroma_qp_offset=-2 / threads=48 / lookahead_threads=4 / sliced_threads=0 / nr=0 / decimate=1 / interlaced=0 / bluray_compat=0 / constrained_intra=0 / fgo=0 / bframes=8 / b_pyramid=2 / b_adapt=2 / b_bias=0 / direct=3 / weightb=1 / open_gop=0 / weightp=2 / keyint=250 / keyint_min=24 / scenecut=40 / intra_refresh=0 / rc=crf / mbtree=0 / crf=15.0000 / qcomp=0.60 / qpmin=0:0:0 / qpmax=69:69:69 / qpstep=4 / ip_ratio=1.40 / pb_ratio=1.30 / aq=3:0.80 / aq-sensitivity=10.00 / aq-factor=1.00:1.00:1.00 / aq2=0 / aq3=0
Language                    : English
Default                     : Yes
Forced                      : No
Color range                 : Limited
Matrix coefficients         : BT.709

Audio #1
ID                          : 2
Format                      : AC-3
Format/Info                 : Audio Coding 3
Commercial name             : Dolby Digital
Codec ID                    : A_AC3
Duration                    : 2 h 15 min
Bit rate mode               : Constant
Bit rate                    : 192 kb/s
Channel(s)                  : 2 channels
Channel layout              : L R
Sampling rate               : 48.0 kHz
Frame rate                  : 31.250 FPS (1536 SPF)
Bit depth                   : 16 bits
Compression mode            : Lossy
Stream size                 : 187 MiB (3%)
Title                       : MVO [Inter] 2.0 [stereo] 192 Kbps [Hurtom]
Language                    : Ukrainian
Service kind                : Complete Main
Default                     : Yes
Forced                      : No

Audio #2
ID                          : 3
Format                      : AC-3
Format/Info                 : Audio Coding 3
Commercial name             : Dolby Digital
Codec ID                    : A_AC3
Duration                    : 2 h 15 min
Bit rate mode               : Constant
Bit rate                    : 640 kb/s
Channel(s)                  : 6 channels
Channel layout              : L R C LFE Ls Rs
Sampling rate               : 48.0 kHz
Frame rate                  : 31.250 FPS (1536 SPF)
Bit depth                   : 16 bits
Compression mode            : Lossy
Stream size                 : 622 MiB (11%)
Title                       : Original, 5.1 640 Kbps
Language                    : Norwegian
Service kind                : Complete Main
Default                     : No
Forced                      : No

Text
ID                          : 4
Format                      : UTF-8
Codec ID                    : S_TEXT/UTF8
Codec ID/Info               : UTF-8 Plain Text
Duration                    : 2 h 9 min
Bit rate                    : 26 b/s
Count of elements           : 851
Stream size                 : 24.8 KiB (0%)
Language                    : English
Default                     : No
Forced                      : No

Menu
00:00:00.000                : en:00:00:00.000
00:07:18.875                : en:00:07:18.875
00:11:51.250                : en:00:11:51.250
00:17:33.250                : en:00:17:33.250
00:22:43.292                : en:00:22:43.292
00:26:26.875                : en:00:26:26.875
00:35:22.750                : en:00:35:22.750
00:40:16.958                : en:00:40:16.958
00:48:44.208                : en:00:48:44.208
00:56:23.917                : en:00:56:23.917
01:02:54.083                : en:01:02:54.083
01:10:34.750                : en:01:10:34.750
01:16:44.208                : en:01:16:44.208
01:23:41.875                : en:01:23:41.875
01:30:26.833                : en:01:30:26.833
01:37:16.417                : en:01:37:16.417
01:43:03.125                : en:01:43:03.125
01:50:37.000                : en:01:50:37.000
01:56:37.750                : en:01:56:37.750
02:02:04.042                : en:02:02:04.042
02:09:39.042                : en:02:09:39.042


Джерело: &
Подяка автору реліза-першоджерела за українську доріжку та п.mrgalser за український постер.


 Трекер:    Зареєстрований   

Завантажити / скачати фільм українською



відео для новачків



 Зареєстрований:   2019-05-15 17:00
 Розмір:   5.64 GB 
 Оцінка фільму:   9.3/10 (Голосів: 13)
 ЗАЛИШАЙТЕСЬ ЯКОМОГА ДОВШЕ НА РОЗДАЧІ! ЗАВАНТАЖИВ САМ - ДАЙ ЗАВАНТАЖИТИ ІНШИМ!
   
Інші релізи
   Дванадцятий (The 12th Man) / Den 12. mann (2017) Electroz  23 / 0   1.46 GB   2019-05-15 00:12 
Bohonek 
Свій


З нами з: 21.12.12
Востаннє: 20.11.19
Повідомлень: 51

2019-05-15 16:35  
Нудота і неправдоподібність на гамерицький манер
Einar 
Новенький


З нами з: 29.07.09
Востаннє: 20.11.19
Повідомлень: 20

2019-05-15 21:01  
Трохи прикрасили норвеги.
В справжній історії цього чувака вважали мертвим і його ніхто не шукав. Тоді він і пішов до Швеції. Але натерпівся під час дороги.

Ваш часовий пояс: GMT + 2 Години

Нова тема   Відповісти