До біса кохання / Down with Love (2003) 1080p Ukr/Eng | Sub Ukr/Eng

Нові коментарі

Нова тема   Відповісти
Автор Повідомлення
Anonymous 







2019-05-15 08:53  
До біса кохання / Down with Love (2003) 1080p Ukr/Eng | Sub Ukr/Eng

До біса кохання / Down with Love (2003) 1080p Ukr/Eng | Sub Ukr/Eng


Жанр: комедія, романтичний
Країна: США, Німеччина



Кінокомпанія: Fox 2000 Pictures, Regency Enterprises, Jinks/Cohen Company
Режисер: Пейтон Рід (Peyton Reed)
Актори: Рене Зеллвегер (Renée Zellweger), Еван МакГрегор (Ewan McGregor), Сара Полсон (Sarah Paulson), Девід Хайд Пірс (David Hyde Pierce), Рейчел Дреч (Rachel Dratch)

Сюжет:
Іскрометна, повна гумору та сюрпризів, ретро-комедія в стилі 60-х років про історію взаємин письменниці-феміністки Барбари Новак, яка поставила на коханні хрест, і відчайдушного бабія журналіста Кетчера Блока, який давно вже відмовився від любові заради сексу.

Барбара Новак підриває весь Нью-Йорк своїм бестселером «До біса любов!» І пропонує всім жінкам закинути свій старий спосіб життя і стати такими ж, як чоловіки - займатися сексом, не вступаючи в постійні зв'язки, робити кар'єру і жити в своє задоволення. Барбара не зупиняється на книзі, вона щосили пропагує новий стиль життя разом зі своєю затятою прихильницею і за сумісництвом редактором Віккі.

Кетчер Блок - цинічний марнотратник життя, дон-жуан і любитель стюардес. Відчувши сенсаційний матеріал для статті, Кетчер вирішує заодно гарненько провчити шалену феміністку і повністю розвінчати створений нею світ жінок, що відмовилися від любові. На тлі шикарних апартаментів і елегантних клубів, розкішних і яскравих нарядів розгортається дивний роман героїв, наповнений двозначностями і сексуальним підтекстом і багатьма несподіваними викриттями.


Тривалість: 01:41:37
Якість: 1080p
Відео:
кодек:
розмір кадру: 1920х800
бітрейт: 3615 кб/с

Аудіо # 1:
мова: українська
переклад: двоголосий закадровий ,
кодек: 2.0 (з 5.1)
бітрейт: 192 кб/с

Аудіо # 2:
мова: англійська
переклад: оригінал
кодек: 5.1
бітрейт: 384 кб/с

Субтитри:
мова: українська
тип: програмні (м'які)
формат: *.srt
переклад: з російської urij546724

Субтитри:
мова: англійська
тип: програмні (м'які)
формат: *.srt
Info
General
Unique ID : 175698062919879372146714555773092651908 (0x842E374F5E6E379CADE6E52DB1EC6384)
Format :
Format version : Version 4
File size : 3.04 GiB
Duration : 1 h 41 min
Overall bit rate : 4 276 kb/s
Encoded date : UTC 2019-05-15 05:46:35
Writing application : v6.1.0 ('Old Devil') built on Mar 4 2013 09:10:42
Writing library : libebml v1.3.0 + v1.4.0

Video
ID : 1
Format : AVC
Format/Info : Advanced Video Codec
Format profile : [email protected]
Format settings : CABAC / 5 Ref Frames
Format settings, CABAC : Yes
Format settings, RefFrames : 5 frames
Codec ID : V_MPEG4/ISO/AVC
Duration : 1 h 41 min
Bit rate : 3 615 kb/s
Width : 1 920 pixels
Height : 800 pixels
Display aspect ratio : 2.40:1
Frame rate mode : Constant
Frame rate : 23.976 FPS
Color space : YUV
Chroma subsampling : 4:2:0
Bit depth : 8 bits
Scan type : Progressive
Bits/(Pixel*Frame) : 0.098
Stream size : 2.57 GiB (85%)
Language : English
Default : Yes
Forced : No
Color range : Limited
Color primaries : BT.709
Transfer characteristics : BT.709
Matrix coefficients : BT.709

Audio #1
ID : 2
Format : AC-3
Format/Info : Audio Coding 3
Commercial name : Dolby Digital
Codec ID : A_AC3
Duration : 1 h 41 min
Bit rate mode : Constant
Bit rate : 192 kb/s
Channel(s) : 2 channels
Channel layout : L R
Sampling rate : 48.0 kHz
Frame rate : 31.250 FPS (1536 SPF)
Bit depth : 16 bits
Compression mode : Lossy
Stream size : 140 MiB (4%)
Title : UKR (TET, Новий)
Language : Ukrainian
Service kind : Complete Main
Default : Yes
Forced : Yes

Audio #2
ID : 3
Format : AC-3
Format/Info : Audio Coding 3
Commercial name : Dolby Digital
Codec ID : A_AC3
Duration : 1 h 41 min
Bit rate mode : Constant
Bit rate : 384 kb/s
Channel(s) : 6 channels
Channel layout : L R C LFE Ls Rs
Sampling rate : 48.0 kHz
Frame rate : 31.250 FPS (1536 SPF)
Bit depth : 16 bits
Compression mode : Lossy
Stream size : 279 MiB (9%)
Title : ENG
Language : English
Service kind : Complete Main
Default : No
Forced : No

Text #1
ID : 4
Format : UTF-8
Codec ID : S_TEXT/UTF8
Codec ID/Info : UTF-8 Plain Text
Title : UKR (by urij546724)
Default : Yes
Forced : No

Text #2
ID : 5
Format : UTF-8
Codec ID : S_TEXT/UTF8
Codec ID/Info : UTF-8 Plain Text
Title : ENG
Language : English
Default : No
Forced : No

Menu
00:00:00.000 : en:Main Titles
00:03:04.000 : en:Meet Miss Novak
00:06:19.000 : en:In the Lions' Den
00:10:36.000 : en:The Ladies Man
00:15:35.000 : en:A Cover Story
00:17:31.000 : en:Waylaid
00:26:13.000 : en:Judy's Favorite Book
00:30:12.000 : en:Second Thoughts
00:32:07.000 : en:Catcher's Quest
00:36:34.000 : en:Major Zip
00:42:02.000 : en:Getting in the Game
00:44:12.000 : en:Two on the Town
00:46:34.000 : en:Emergency
00:48:26.000 : en:Dinner with Zip
00:51:37.000 : en:Mac's Big Move
00:54:03.000 : en:Let's Get to Bed
00:57:55.000 : en:The Beatnik Bash
01:00:19.000 : en:Zip in Love
01:03:34.000 : en:Out of a Job
01:06:34.000 : en:The Big Night
01:09:20.000 : en:The Exposé Exposed
01:10:47.000 : en:Going for Broke
01:13:42.000 : en:Catcher Gets Caught
01:20:10.000 : en:A Down With Love Girl
01:24:22.000 : en:Out of Circulation
01:27:20.000 : en:The Job Interview
01:32:41.000 : en:Up With Love
01:34:59.000 : en:End Titles (Here's to Love)
Скріншоти







За українську доріжку подяка п.: dvorsky, urij546724
За українські субтитри подяка п. urij546724
Особиста подяка пану denixx за надану матеріальну допомогу на підтримку цього і майбутніх релізів.
Джерело:


Срібний реліз (на рейтинг впливає 50% завантаженого)
 Трекер:    Зареєстрований   

Завантажити / скачати фільм українською



відео для новачків



 Зареєстрований:   2019-05-15 08:53
 Розмір:   3.04 GB 
 Оцінка фільму:   8.3/10 (Голосів: 7)
   
Інші релізи
Ваш часовий пояс: GMT + 2 Години

Нова тема   Відповісти