Проклятий шлях / Road to Perdition (2002) Remux 1080p 2xUkr/Eng | Sub Ukr/Eng

Нові коментарі

Нова тема   Відповісти
Автор Повідомлення
IronBee 
Поважний учасник


З нами з: 08.02.10
Востаннє: 24.09.20
Повідомлень: 231

2019-05-14 15:38  
Проклятий шлях / Road to Perdition (2002) Remux 1080p 2xUkr/Eng | Sub Ukr/Eng

Проклятий шлях / Road to Perdition (2002) Remux 1080p 2xUkr/Eng | Sub Ukr/Eng


Жанр: пригодницький, кримінальний, драма
Країна: США



Кінокомпанія: DreamWorks SKG, Twentieth Century Fox Film Corporation, Zanuck Company, The
Режисер: Сем Мендеc (Sam Mendes)
Актори: Том Генкс (Tom Hanks), Пол Ньюмен (Paul Newman), Джуд Лоу (Jude Law), Дженніфер Джейсон Лейґ (Jennifer Jason Leigh), Стенлі Тучі (Stanley Tucci), Деніел Крейґ (Daniel Craig), Тайлер Гехлін (Tyler Hoechlin), Кайрен Гайндс (Ciarán Hinds), Ділан Бейкер (Dylan Baker) та інші

Сюжет:
Чикаґо часів Великої депресії. Два сини - Майкл Саліван-молодший і Конор Руні відчайдушно прагнуть завоювати прихильність своїх батьків - Майкла Салівана-старшого, ґанґстера з ірландського клану, і Джона Руні, боса Саллівана-старшого, який замінив йому батька. Ревнощі і суперництво штовхають їх всіх на згубний шлях.
Сім’я Салівана-старшого стає жертвою страшної "професії" голови сімейства. Гинуть його кохана дружина і молодший син Пітер. Помста і трагедія стають постійними супутниками Майкла і його сина, що залишився в живих...


Тривалість: 01:56:59
Якість: Remux
Відео:
кодек:
розмір кадру: 1920 х 1080
бітрейт: 22.3 M кб/с

Аудіо # 1:
мова: українська
переклад: багатоголосий закадровий | 2+2
кодек: 5.1
бітрейт: 448 кб/с

Аудіо # 2:
мова: українська
переклад: одноголосий закадровий | (Mister rock)
кодек: 5.1
бітрейт: 448 кб/с

Аудіо # 3:
мова: англійська
переклад: оригінал
кодек: -HD MA 5.1
бітрейт: 3 803 кб/с

Субтитри:
мова: українська
тип: пререндерні
формат: *.PGS

Субтитри:
мова: англійська
тип: пререндерні
формат: *.PGS
Info
General
Unique ID : 330346585132781205646848030386308046937 (0xF8867022F3C6DCE236BF12BC6818E059)
Complete name : D:\Films\Проклятий шлях Road to Perdition (2002) Remux 1080p 2xUkrEng Sub UkrEng[Hurtom].
Format :
Format version : Version 4
File size : 22.1 GiB
Duration : 1 h 56 min
Overall bit rate mode : Variable
Overall bit rate : 27.0 Mb/s
Encoded date : UTC 2019-05-10 13:32:59
Writing application : v33.1.0 ('Primrose') 64-bit
Writing library : libebml v1.3.7 + v1.5.0

Video
ID : 1
Format : AVC
Format/Info : Advanced Video Codec
Format profile : [email protected]
Format settings : CABAC / 4 Ref Frames
Format settings, CABAC : Yes
Format settings, ReFrames : 4 frames
Codec ID : V_MPEG4/ISO/AVC
Duration : 1 h 56 min
Bit rate mode : Variable
Bit rate : 22.3 Mb/s
Maximum bit rate : 35.0 Mb/s
Width : 1 920 pixels
Height : 1 080 pixels
Display aspect ratio : 16:9
Frame rate mode : Constant
Frame rate : 23.976 (24000/1001) FPS
Color space : YUV
Chroma subsampling : 4:2:0
Bit depth : 8 bits
Scan type : Progressive
Bits/(Pixel*Frame) : 0.448
Stream size : 18.2 GiB (83%)
Default : Yes
Forced : No
Color range : Limited
Color primaries : BT.709
Transfer characteristics : BT.709
Matrix coefficients : BT.709

Audio #1
ID : 2
Format : AC-3
Format/Info : Audio Coding 3
Commercial name : Dolby Digital
Codec ID : A_AC3
Duration : 1 h 56 min
Bit rate mode : Constant
Bit rate : 448 kb/s
Channel(s) : 6 channels
Channel layout : L R C LFE Ls Rs
Sampling rate : 48.0 kHz
Frame rate : 31.250 FPS (1536 SPF)
Bit depth : 16 bits
Compression mode : Lossy
Stream size : 375 MiB (2%)
Title : 5.1 448 кб/с багатоголосий закадровий 2+2
Language : Ukrainian
Service kind : Complete Main
Default : Yes
Forced : No

Audio #2
ID : 3
Format : AC-3
Format/Info : Audio Coding 3
Commercial name : Dolby Digital
Codec ID : A_AC3
Duration : 1 h 56 min
Bit rate mode : Constant
Bit rate : 448 kb/s
Channel(s) : 6 channels
Channel layout : L R C LFE Ls Rs
Sampling rate : 48.0 kHz
Frame rate : 31.250 FPS (1536 SPF)
Bit depth : 16 bits
Compression mode : Lossy
Stream size : 375 MiB (2%)
Title : 5.1 448 кб/с одноголосий закадровий (Mister rock)
Language : Ukrainian
Service kind : Complete Main
Default : No
Forced : No

Audio #3
ID : 4
Format : XLL
Format/Info : Digital Theater Systems
Commercial name : -HD Master Audio
Codec ID : A_DTS
Duration : 1 h 56 min
Bit rate mode : Variable
Bit rate : 3 803 kb/s
Channel(s) : 6 channels
Channel layout : C L R Ls Rs LFE
Sampling rate : 48.0 kHz
Frame rate : 93.750 FPS (512 SPF)
Bit depth : 24 bits
Compression mode : Lossless
Stream size : 3.11 GiB (14%)
Language : English
Default : No
Forced : No

Text #1
ID : 5
Format : PGS
Muxing mode : zlib
Codec ID : S_HDMV/PGS
Codec ID/Info : Picture based subtitle format used on BDs/HD-DVDs
Duration : 1 h 55 min
Bit rate : 15.7 kb/s
Count of elements : 1490
Stream size : 13.0 MiB (0%)
Language : Ukrainian
Default : Yes
Forced : No

Text #2
ID : 6
Format : PGS
Muxing mode : zlib
Codec ID : S_HDMV/PGS
Codec ID/Info : Picture based subtitle format used on BDs/HD-DVDs
Duration : 1 h 55 min
Bit rate : 15.6 kb/s
Count of elements : 1478
Stream size : 12.8 MiB (0%)
Language : English
Default : No
Forced : No
Скріншоти





За створення доріжки 5.1 подяка Romario_O, за постер - Konfucius'у

Джерело: &
Особиста оцінка: 10


Золотий реліз (завантажене не впливає на рейтинг)
 Трекер:    Зареєстрований   

Завантажити / скачати фільм українською



відео для новачків



 Зареєстрований:   2019-05-14 15:38
 Розмір:   22.07 GB 
 Оцінка фільму:   10/10 (Голосів: 6)
   
Анонім 004 







2019-05-18 23:31  
Фільм топчик
Ваш часовий пояс: GMT + 2 Години

Нова тема   Відповісти