Щасливі разом / Happy Together (1997) 1080p Chi | Sub Ukr/Eng

Нові коментарі

Нова тема   Відповісти
немає
Автор Повідомлення
YesNoMaybe 
Новенький


З нами з: 08.10.17
Востаннє: 28.06.19
Повідомлень: 8

2019-05-14 10:49  
Щасливі разом / Happy Together (1997) 1080p Chi | Sub Ukr/Eng

Щасливі разом / Happy Together (1997) 1080p Chi | Sub Ukr/Eng

Альтернативні постери



Жанр: романтична драма, ЛГБТ
Країна: Гонконг



Кінокомпанія: Block 2 Pictures, Jet Tone Production, Prénom H Co. Ltd., Seowoo Film Company
Режисер: Вонг Карвай
Актори: Леслі Чун, Тоні Люн Чу Вай, Чен Чан

Сюжет:
Ю-Фай та По-Вінг вирушають в Аргентину, щоб відновити свої стосунки й почати все заново, але натомість віддаляються одне від одного.


Тривалість: 01:35:56
Якість:
Відео:
кодек:
розмір кадру: 1920 х 1040
бітрейт: 10,4 Мб/с

Аудіо:
мова: китайська
переклад: оригінал
кодек: 5.1
бітрейт: 1509 кб/с

Субтитри:
мова: англійська
тип: програмні (м'які)
формат: *.srt

Субтитри: (окремо)
мова: українська
тип: програмні (м'які)
формат: *.srt
переклад: screenmy
Скріншоти
Info
Код:

General
Format                      :
Format version              : Version 2
File size                   : 7.96 GiB
Duration                    : 1 h 35 min
Overall bit rate            : 11.9 Mb/s
Encoded date                : UTC 2010-08-27 02:10:31
Writing application         : v3.2.0 ('Beginnings') built on Feb 12 2010 16:46:17
Writing library             : libebml v0.7.9 + v0.8.1

Video
ID                          : 1
Format                      : AVC
Format/Info                 : Advanced Video Codec
Format profile              : [email protected]
Format settings             : CABAC / 4 Ref Frames
Format settings, CABAC      : Yes
Format settings, ReFrames   : 4 frames
Codec ID                    : V_MPEG4/ISO/AVC
Duration                    : 1 h 35 min
Bit rate                    : 10.4 Mb/s
Width                       : 1 920 pixels
Height                      : 1 040 pixels
Display aspect ratio        : 1.85:1
Frame rate mode             : Constant
Frame rate                  : 23.976 (24000/1001) FPS
Color space                 : YUV
Chroma subsampling          : 4:2:0
Bit depth                   : 8 bits
Scan type                   : Progressive
Bits/(Pixel*Frame)          : 0.217
Stream size                 : 6.79 GiB (85%)
Writing library             : core 100 r1659 57b2e56
Encoding settings           : cabac=1 / ref=4 / deblock=1:0:0 / analyse=0x3:0x133 / me=umh / subme=7 / psy=1 / psy_rd=1.00:0.00 / mixed_ref=1 / me_range=16 / chroma_me=1 / trellis=1 / 8x8dct=1 / cqm=0 / deadzone=21,11 / fast_pskip=1 / chroma_qp_offset=-2 / threads=16 / sliced_threads=0 / nr=0 / decimate=1 / interlaced=0 / constrained_intra=0 / bframes=3 / b_pyramid=2 / b_adapt=2 / b_bias=0 / direct=3 / weightb=1 / open_gop=0 / weightp=2 / keyint=250 / keyint_min=25 / scenecut=40 / intra_refresh=0 / rc_lookahead=40 / rc=2pass / mbtree=1 / bitrate=10365 / ratetol=1.0 / qcomp=0.60 / qpmin=10 / qpmax=51 / qpstep=4 / cplxblur=20.0 / qblur=0.5 / ip_ratio=1.40 / aq=1:1.00
Default                     : Yes
Forced                      : No

Audio
ID                          : 2
Format                      :
Format/Info                 : Digital Theater Systems
Codec ID                    : A_DTS
Duration                    : 1 h 35 min
Bit rate mode               : Constant
Bit rate                    : 1 509 kb/s
Channel(s)                  : 6 channels
Channel layout              : C L R Ls Rs LFE
Sampling rate               : 48.0 kHz
Frame rate                  : 93.750 FPS (512 SPF)
Bit depth                   : 24 bits
Compression mode            : Lossy
Stream size                 : 1.01 GiB (13%)
Language                    : Chinese
Default                     : Yes
Forced                      : No

Text #1
ID                          : 3
Format                      : UTF-8
Codec ID                    : S_TEXT/UTF8
Codec ID/Info               : UTF-8 Plain Text
Language                    : English
Default                     : Yes
Forced                      : No

Text #2
ID                          : 4
Format                      : UTF-8
Codec ID                    : S_TEXT/UTF8
Codec ID/Info               : UTF-8 Plain Text
Language                    : English
Default                     : No
Forced                      : No
Локалізація постерів: screenmy
Особиста оцінка: 9
Foosh-Coosh 
Новенький


З нами з: 01.05.16
Востаннє: 17.08.19
Повідомлень: 1

2019-05-15 21:23  
Людоньки, дайте завантажити! Жодного сідера Cry (2) Cry (1)
[email protected] 
Новенький


З нами з: 16.09.18
Востаннє: 22.08.19
Повідомлень: 11

2019-05-15 22:28  
Foosh-Coosh
ДЛЯ ЧОГО?????????? НЕ ПОЗОРЬСЯ!!!!!!!!!!!!!! НЕ ГАНЬБИ БАТЬКА!!!!!!

Додано через 3 хвилини 30 секунд:

Йде зайчик по лісу, побачив білочку і закохався.
- Білочка, давай зійдемося?
- Ну давай.
Живуть вони щасливо, а от дітей у них ніяк не виходить зробити.
Зайчик каже:
- Це, напевно, тому що я зайчик, а ти білочка.
- Напевно.
- Ходімо у сови запитаємо, вона мудра все знає.
Прийшли до сови. Зайчик каже:
- Сова, ось живемо ми разом, любимо один одного, а ось дітей немає. Це, напевно, тому що я зайчик, вона білочка.
- Та ви ОХ@ЇЛИ чи що? Це тому що ти хлопчик, і вона хлопчик !!!
+380954897458 
VIP


З нами з: 02.06.17
Востаннє: 22.08.19
Повідомлень: 362

2019-05-16 22:21  
[email protected]
Для чого? Ти серйозно? Тому що це Вонг Кар-вай, один з кращих режисерів світу. А той анекдот бородатіший за ZZ Top. Оригінальнішого нічого не міг придумати?
Ваш часовий пояс: GMT + 2 Години

Нова тема   Відповісти