Смертельна помилка / Tödlicher Irrtum (1970) Remux 1080i Ukr/Ger

Нові коментарі

Нова тема   Відповісти
Автор Повідомлення
MakRA 
VIP


З нами з: 10.11.18
Востаннє: 20.11.19
Повідомлень: 531

2019-05-14 00:34  
Смертельна помилка / Tödlicher Irrtum (1970) Remux 1080i Ukr/Ger

Смертельна помилка / Tödlicher Irrtum (1970) Remux 1080i Ukr/Ger

Альтернативні обкладинки:




Жанр: вестерн
Країна: НДР



Кінокомпанія: Deutsche Film (DEFA)
Режисер: Конрад Петцольде [Konrad Petzold]
Актори: Гойко Мітіч [Gojko Mitic], Армін Мюллер-Шталь [Armin Mueller-Stahl], Гоппе Рольф [Rolf Hoppe], Аннекатрін Бюргер [Annekathrin Bürger], Кристина Міколаєвська [Krystyna Mikolajewska], Каті Буш [Kati Bus], Ганньо Гассе [Hannjo Hasse], Ганс Клерінг [Hans Klering].

Сюжет:
Америка, кінець XIX століття. Недалеко від Скелястих гір компанія "Вайомінг Ойл" виявляє родовище і починає видобуток нафти. Вожді індіанських племен, на землях яких ведуться розробки, стають партнерами-акціонерами. Але один за іншим вони загадково гинуть. Підозра в їх усуненні падає на білого підприємця Майка Аллисона...


Тривалість: 01:35:24
Якість: Remux 1080i
Відео:
кодек:
розмір кадру: 1920 х 1080
бітрейт: 29.5 Мб/с

Аудіо # 1:
мова: українська
переклад: двоголосий закадровий
кодек: 2.0
бітрейт: 192 кб/с

Аудіо # 2:
мова: німецька
переклад: оригінал
кодек: 2.0
бітрейт: 384 кб/с

Збережено оригінальні розділи, як на Blu-ray.
Info
General
Unique ID : 144533916130900357271986320376584276188 (0x6CBC383EA06615D0CB39BB9C9D0508DC)
Complete name : E:\Вестерни\Tödlicher Irrtum (1970) Remux 1080i UkrGer [Hurtom].
Format :
Format version : Version 4 / Version 2
File size : 20.0 GiB
Duration : 1 h 35 min
Overall bit rate mode : Variable
Overall bit rate : 30.1 Mb/s
Movie name : Смертельна помилка / Tödlicher Irrtum (1970) Remux 1080i Ukr/Ger [Hurtom]
Encoded date : UTC 2019-05-13 19:46:39
Writing application : v25.0.0 ('Prog Noir') 64-bit
Writing library : libebml v1.3.6 + v1.4.9

Video
ID : 1
Format : AVC
Format/Info : Advanced Video Codec
Format profile : [email protected]
Format settings, CABAC : Yes
Format settings, RefFrames : 3 frames
Codec ID : V_MPEG4/ISO/AVC
Duration : 1 h 35 min
Bit rate mode : Variable
Bit rate : 29.5 Mb/s
Maximum bit rate : 35.0 Mb/s
Width : 1 920 pixels
Height : 1 080 pixels
Display aspect ratio : 16:9
Frame rate mode : Constant
Frame rate : 25.000 FPS
Standard : NTSC
Color space : YUV
Chroma subsampling : 4:2:0
Bit depth : 8 bits
Scan type : MBAFF
Bits/(Pixel*Frame) : 0.569
Stream size : 19.6 GiB (98%)
Title : Tödlicher Irrtum (1970) Remux 1080i Ukr/Ger [Hurtom]
Language : Ukrainian
Default : Yes
Forced : Yes
Color range : Limited
Color primaries : BT.709
Transfer characteristics : BT.709
Matrix coefficients : BT.709

Audio #1
ID : 2
Format : AC-3
Format/Info : Audio Coding 3
Format settings, Endianness : Big
Codec ID : A_AC3
Duration : 1 h 35 min
Bit rate mode : Constant
Bit rate : 192 kb/s
Channel(s) : 2 channels
Channel positions : Front: L R
Sampling rate : 48.0 kHz
Frame rate : 31.250 FPS (1536 SPF)
Bit depth : 16 bits
Compression mode : Lossy
Stream size : 131 MiB (1%)
Title : DVO [ENTER]
Language : Ukrainian
Service kind : Complete Main
Default : Yes
Forced : Yes

Audio #2
ID : 3
Format : AC-3
Format/Info : Audio Coding 3
Format settings, Endianness : Big
Codec ID : A_AC3
Duration : 1 h 35 min
Bit rate mode : Constant
Bit rate : 384 kb/s
Channel(s) : 2 channels
Channel positions : Front: L R
Sampling rate : 48.0 kHz
Frame rate : 31.250 FPS (1536 SPF)
Bit depth : 16 bits
Compression mode : Lossy
Stream size : 262 MiB (1%)
Title : Original
Language : German
Service kind : Complete Main
Default : No
Forced : No

Menu
00:00:00.000 : en:00:00:00.000
00:07:48.000 : en:00:07:48.000
00:18:26.880 : en:00:18:26.880
00:30:12.480 : en:00:30:12.480
00:41:40.320 : en:00:41:40.320
00:52:46.560 : en:00:52:46.560
01:06:46.080 : en:01:06:46.080
01:19:12.960 : en:01:19:12.960
01:30:11.040 : en:01:30:11.040
01:35:11.520 : en:01:35:11.520
Скріншоти
Джерело: &
Особиста оцінка: 10 - без зайвих вагань рекомендую всім!
Велика подяка пану krigg070 за запис та синхронізацію.


Золотий реліз (завантажене не впливає на рейтинг)
 Трекер:    Зареєстрований   

Завантажити / скачати фільм українською



відео для новачків



 Зареєстрований:   2019-05-14 00:34
 Розмір:   20.02 GB 
 Оцінка фільму:   10/10 (Голосів: 4)
   
Інші релізи
   Смертельна помилка / Tödlicher Irrtum (1970) krigg070  1 / 0   1.53 GB   2017-10-31 23:37 
staf777 
Відео Гуртом - підтримка та поширення
Відео Гуртом - підтримка та поширення


З нами з: 16.11.16
Востаннє: 20.11.19
Повідомлень: 3034

2019-05-15 15:22  
О золота класика
Ваш часовий пояс: GMT + 2 Години

Нова тема   Відповісти