Тім Талер, або Проданий сміх / Timm Thaler oder das verkaufte Lachen (2017) 720p Ukr/Ger

Нові коментарі

Нова тема   Відповісти
Автор Повідомлення
Anonymous 







2019-05-13 12:23  
Тім Талер, або Проданий сміх / Timm Thaler oder das verkaufte Lachen (2017) 720p Ukr/Ger

Тім Талер, або Проданий сміх / Timm Thaler oder das verkaufte Lachen (2017) 720p Ukr/Ger


Жанр: пригодницький, комедія, драма
Країна: Німеччина



Кінокомпанія: Constantin Film, Rolize GmbH & Co., Zweites Deutsches Fernsehen (ZDF)
Режисер: Андреас Дрезен
Актори: Арвед Фрізе, Надя Уль, Гаральд Шмідт, Томас Орнер, Андреас Дрезен.

Сюжет:
Юний хлопчик Тім Таллер живе разом зі своїм батьком на маленькій вуличці в німецькому місті. У ті часи, а саме у двадцяті роки ХХ століття, багато німців не були заможними, так і Тім із батьком жили серед не найкращих обставин. Не дивлячись на це, хлопчик по-справжньому щасливий. Й у нього є такий сміх, якого немає більше ні в кого, ні з ким не переплутаєш! Цей сміх у Тіма Таллера неймовірно заразливий – варто йому лише почати реготати, як все навколо теж почнуть триматися за животи. Будучи на скачках, хлопчик отримав дивну, але дуже вигідну пропозицію від загадкового чоловіка – продати свій сміх на можливість вигравати будь-які суперечки. Що ж краще: отримувати бажане або радіти життю?


Тривалість: 01:48:22
Якість:
Відео:
кодек:
розмір кадру: 1280 x 536
бітрейт: ~4594 кб/с

Аудіо # 1:
мова: українська
переклад: професійний дубльований
кодек: 5.1
бітрейт: 384 кб/с

Аудіо # 2:
мова: німецька
переклад: оригінал
кодек: 5.1
бітрейт: 448 кб/с
Info
Format :
Format version : Version 4
File size : 3.88 GiB
Duration : 1 h 42 min
Overall bit rate : 5 427 kb/s
Encoded date : UTC 2019-05-13 10:34:37
Writing application : v27.0.0 ('Metropolis') 64-bit
Writing library : libebml v1.3.6 + v1.4.9
Attachments : poster.jpg

Video
ID : 1
Format : AVC
Format/Info : Advanced Video Codec
Format profile : [email protected]
Format settings : CABAC / 5 Ref Frames
Format settings, CABAC : Yes
Format settings, ReFrames : 5 frames
Codec ID : V_MPEG4/ISO/AVC
Duration : 1 h 42 min
Bit rate : 4 594 kb/s
Width : 1 280 pixels
Height : 536 pixels
Display aspect ratio : 2.40:1
Frame rate mode : Constant
Frame rate : 24.000 FPS
Color space : YUV
Chroma subsampling : 4:2:0
Bit depth : 8 bits
Scan type : Progressive
Bits/(Pixel*Frame) : 0.279
Stream size : 3.29 GiB (85%)
Writing library : core 152 r2851 ba24899
Encoding settings : cabac=1 / ref=5 / deblock=1:-2:-2 / analyse=0x3:0x113 / me=umh / subme=8 / psy=1 / psy_rd=1.00:0.00 / mixed_ref=1 / me_range=16 / chroma_me=1 / trellis=2 / 8x8dct=1 / cqm=0 / deadzone=21,11 / fast_pskip=1 / chroma_qp_offset=-2 / threads=12 / lookahead_threads=2 / sliced_threads=0 / nr=0 / decimate=1 / interlaced=0 / bluray_compat=0 / constrained_intra=0 / bframes=3 / b_pyramid=2 / b_adapt=2 / b_bias=0 / direct=3 / weightb=1 / open_gop=0 / weightp=2 / keyint=240 / keyint_min=24 / scenecut=40 / intra_refresh=0 / rc_lookahead=50 / rc=2pass / mbtree=1 / bitrate=4594 / ratetol=1.0 / qcomp=0.60 / qpmin=0 / qpmax=69 / qpstep=4 / cplxblur=20.0 / qblur=0.5 / ip_ratio=1.40 / aq=1:1.00
Language : German
Default : Yes
Forced : No

Audio #1
ID : 2
Format : AC-3
Format/Info : Audio Coding 3
Commercial name : Dolby Digital
Codec ID : A_AC3
Duration : 1 h 42 min
Bit rate mode : Constant
Bit rate : 384 kb/s
Channel(s) : 6 channels
Channel layout : L R C LFE Ls Rs
Sampling rate : 48.0 kHz
Frame rate : 31.250 FPS (1536 SPF)
Bit depth : 16 bits
Compression mode : Lossy
Stream size : 281 MiB (7%)
Title : DUB
Language : Ukrainian
Service kind : Complete Main
Default : Yes
Forced : No

Audio #2
ID : 3
Format : AC-3
Format/Info : Audio Coding 3
Commercial name : Dolby Digital
Codec ID : A_AC3
Duration : 1 h 42 min
Bit rate mode : Constant
Bit rate : 448 kb/s
Channel(s) : 6 channels
Channel layout : L R C LFE Ls Rs
Sampling rate : 48.0 kHz
Frame rate : 31.250 FPS (1536 SPF)
Bit depth : 16 bits
Compression mode : Lossy
Stream size : 328 MiB (8%)
Title : Original
Language : German
Service kind : Complete Main
Default : No
Forced : No

Menu
00:00:00.000 : en:00:00:00.000
00:03:51.250 : en:00:03:51.250
00:08:39.458 : en:00:08:39.458
00:13:12.708 : en:00:13:12.708
00:17:29.625 : en:00:17:29.625
00:22:08.458 : en:00:22:08.458
00:28:09.250 : en:00:28:09.250
00:33:06.042 : en:00:33:06.042
00:38:36.792 : en:00:38:36.792
00:44:47.625 : en:00:44:47.625
00:52:13.125 : en:00:52:13.125
00:57:46.667 : en:00:57:46.667
01:04:50.625 : en:01:04:50.625
01:08:37.833 : en:01:08:37.833
01:13:37.625 : en:01:13:37.625
01:17:57.542 : en:01:17:57.542
01:23:56.500 : en:01:23:56.500
01:28:43.917 : en:01:28:43.917
01:33:45.083 : en:01:33:45.083
01:36:39.958 : en:01:36:39.958
Скріншоти












 Трекер:    Зареєстрований   

Завантажити / скачати фільм українською



відео для новачків



 Зареєстрований:   2019-05-13 13:42
 Розмір:   3.88 GB 
 Оцінка фільму:   8.5/10 (Голосів: 6)
   
Bohonek 
Частий відвідувач


З нами з: 21.12.12
Востаннє: 22.05.19
Повідомлень: 37

2019-05-13 13:21  
Це екранізація чи просто здерли сюжет під сучасний витвір?
bot 
робот


З нами з: 30.09.07
Востаннє: 26.05.05
Повідомлень: 21368

2019-05-13 13:42  
Тему перенесено з Анонси релізів до форуму Фільми в HD


leicheman

Ваш часовий пояс: GMT + 2 Години

Нова тема   Відповісти