Вулкан / Volcano (1997) Remux 1080p Ukr/Eng | Sub Eng

Нові коментарі

Нова тема   Відповісти
Автор Повідомлення
MakRA 
Поважний учасник


З нами з: 11.11.18
Востаннє: 23.05.19
Повідомлень: 199

2019-05-12 11:48  
Вулкан / Volcano (1997) Remux 1080p Ukr/Eng | Sub Eng

Вулкан / Volcano (1997) Remux 1080p Ukr/Eng | Sub Eng


Альтернативні обкладинки:





Жанр: екшн, драма, катастрофа, фантастика
Країна: США



Кінокомпанія: Twentieth Century Fox Film Corporation, Donner/Shuler-Donner Productions, Moritz Original
Режисер: Мік Джексон [Mick Jackson]
Актори: Томмі Лі Джонс [Tommy Lee Jones], Енн Хеш [Anne Heche], Гебі Хоффманн [Gaby Hoffmann], Дон Чідл [Don Cheadle], Жаклін Кім [Jacqueline Kim], Кіт Девід [Keith David], Джон Корбетт [John Corbett], Майкл Рісполі [Michael Rispoli], Джон Керролл Лінч [John Carroll Lynch].

Сюжет:
Велике місто Лос-Анджелес за всю свою історію встигло пережити багато різних лих: пожежі, землетруси, повені. Тепер глядачі зможуть побачити, як місто стикається з жахливою катастрофою, яка погрожує просто прибрати його з лиця землі. Ніхто і ніколи не вгадає, звідки може прийти біда, а тим більше яких масштабів вона принесе руйнування, особливо якщо говорити про природу. Біля одного з найбільш населених районів міста вулкан зовсім раптово прокинувся і гаряча лава, яка загрожує людям, вже вихлюпується на провулки, які просто забиті мотоциклами і автомобілями.
Офіцер служби порятунку зобов'язаний вжити всіх заходів з порятунку людей...


Тривалість: 01:43:51
Якість: Remux 1080p
Відео:
кодек:
розмір кадру: 1920 х 1080
бітрейт: 19,9 Мб/с

Аудіо # 1:
мова: українська
переклад: двоголосий закадровий
кодек: 2.0
бітрейт: 192 кб/с

Аудіо # 2:
мова: англійська
переклад: оригінал
кодек: 5.1
бітрейт: 640 кб/с

Аудіо # 3:
мова: англійська
переклад: оригінал
кодек: -HD MA 5.1
бітрейт: 2453 кб/с

Субтитри # 1-2: (Full / SDH)
мова: англійська
тип: програмні (м'які)
формат: *.srt

Збережено оригінальні розділи, як на Blu-ray.
Info
General
Unique ID : 33074571102130687549605986487886190497 (0x18E1EE41973D21399B13AF275FF897A1)
Complete name : E:\! Моя роздача\Volcano (1997) Remux 1080p UkrEng Sub Eng [Hurtom].
Format :
Format version : Version 4 / Version 2
File size : 16.9 GiB
Duration : 1 h 43 min
Overall bit rate mode : Variable
Overall bit rate : 23.2 Mb/s
Movie name : Вулкан / Volcano (1997) Remux 1080p Ukr/Eng | Sub Eng [Hurtom]
Encoded date : UTC 2019-05-11 22:10:28
Writing application : v25.0.0 ('Prog Noir') 64-bit
Writing library : libebml v1.3.6 + v1.4.9
Cover : Yes
Attachments : cover.jpg

Video
ID : 1
Format : AVC
Format/Info : Advanced Video Codec
Format profile : [email protected]
Format settings, CABAC : Yes
Format settings, RefFrames : 2 frames
Codec ID : V_MPEG4/ISO/AVC
Duration : 1 h 43 min
Bit rate mode : Variable
Bit rate : 19.9 Mb/s
Width : 1 920 pixels
Height : 1 080 pixels
Display aspect ratio : 16:9
Frame rate mode : Constant
Frame rate : 23.976 (24000/1001) FPS
Color space : YUV
Chroma subsampling : 4:2:0
Bit depth : 8 bits
Scan type : Progressive
Bits/(Pixel*Frame) : 0.401
Stream size : 14.5 GiB (86%)
Title : Volcano (1997) Remux 1080p Ukr/Eng | Sub Eng [Hurtom]
Language : Ukrainian
Default : Yes
Forced : Yes

Audio #1
ID : 2
Format : AC-3
Format/Info : Audio Coding 3
Format settings, Endianness : Big
Codec ID : A_AC3
Duration : 1 h 43 min
Bit rate mode : Constant
Bit rate : 192 kb/s
Channel(s) : 2 channels
Channel positions : Front: L R
Sampling rate : 48.0 kHz
Frame rate : 31.250 FPS (1536 SPF)
Bit depth : 16 bits
Compression mode : Lossy
Stream size : 143 MiB (1%)
Title : DVO [2+2]
Language : Ukrainian
Service kind : Complete Main
Default : Yes
Forced : Yes

Audio #2
ID : 3
Format : AC-3
Format/Info : Audio Coding 3
Format settings, Endianness : Big
Codec ID : A_AC3
Duration : 1 h 43 min
Bit rate mode : Constant
Bit rate : 640 kb/s
Channel(s) : 6 channels
Channel positions : Front: L C R, Side: L R, LFE
Sampling rate : 48.0 kHz
Frame rate : 31.250 FPS (1536 SPF)
Bit depth : 16 bits
Compression mode : Lossy
Stream size : 475 MiB (3%)
Title : Original 5.1
Language : English
Service kind : Complete Main
Default : No
Forced : No

Audio #3
ID : 4
Format :
Format/Info : Digital Theater Systems
Format profile : MA / Core
Mode : 16
Format settings, Endianness : Big
Codec ID : A_DTS
Duration : 1 h 43 min
Bit rate mode : Variable / Constant
Bit rate : 2 453 kb/s / 1 509 kb/s
Channel(s) : 6 channels
Channel positions : Front: L C R, Side: L R, LFE
Sampling rate : 48.0 kHz
Frame rate : 93.750 FPS (512 SPF)
Bit depth : 16 bits
Compression mode : Lossless / Lossy
Stream size : 1.78 GiB (11%)
Title : Original -HD MA 5.1
Language : English
Default : No
Forced : No

Text #1
ID : 5
Format : UTF-8
Codec ID : S_TEXT/UTF8
Codec ID/Info : UTF-8 Plain Text
Duration : 1 h 40 min
Bit rate : 86 b/s
Count of elements : 1803
Stream size : 63.8 KiB (0%)
Title : Full
Language : English
Default : No
Forced : No

Text #2
ID : 6
Format : UTF-8
Codec ID : S_TEXT/UTF8
Codec ID/Info : UTF-8 Plain Text
Duration : 1 h 40 min
Bit rate : 89 b/s
Count of elements : 1932
Stream size : 66.3 KiB (0%)
Title : SDH
Language : English
Default : No
Forced : No

Menu
00:00:00.000 : en:00:00:00.000
00:11:41.743 : en:00:11:41.743
00:21:57.356 : en:00:21:57.356
00:30:05.554 : en:00:30:05.554
00:42:56.114 : en:00:42:56.114
00:53:30.748 : en:00:53:30.748
01:02:27.827 : en:01:02:27.827
01:10:18.840 : en:01:10:18.840
01:21:46.819 : en:01:21:46.819
01:33:04.662 : en:01:33:04.662
Скріншоти
Джерело: &
Особиста оцінка: 10 - без зайвих вагань рекомендую всім!
Подяка п. Sando7 за запис з ТБ, п. voin747 за синхронізацію.


Золотий реліз (завантажене не впливає на рейтинг)
 Трекер:    Зареєстрований   

Завантажити / скачати фільм українською



відео для новачків



 Зареєстрований:   2019-05-12 11:48
 Розмір:   16.85 GB 
 Оцінка фільму:   9.5/10 (Голосів: 6)
   
Інші релізи
   Вулкан / Volcano (1997) AVC Ukr/Eng | Sub Eng staf777  3 / 0   2.64 GB   2018-12-12 13:17 
   Вулкан / Volcano (1997) 720p Ukr/Eng | Sub Eng staf777  2 / 0   6.4 GB   2017-02-20 17:36 
   Вулкан / Volcano (1997) patriot2305  2 / 0   1.18 GB   2014-03-24 15:06 
   Вулкан / Volcano (1997) Ukr/Eng | Sub Ukr/Eng _oles  0 / 1   1.72 GB   2010-07-09 16:35 
Ваш часовий пояс: GMT + 2 Години

Нова тема   Відповісти