Формула 1. Сезон 2019. Етап 5. Гран-Прі Іспанії. Кваліфікація (11.05.2019) 1080p Ukr/Eng

Нові коментарі

Нова тема   Відповісти
Автор Повідомлення
sergiyko.5 
VIP


З нами з: 25.02.16
Востаннє: 24.05.19
Повідомлень: 2288

2019-05-11 20:21  
Формула 1. Сезон 2019. Етап 5. Гран-Прі Іспанії. Кваліфікація (11.05.2019) 1080p Ukr/Eng
Формула 1. Сезон 2019. Етап 5. Гран-Прі Іспанії. Кваліфікація (11.05.2019) 1080p Ukr/Eng

Жанр: Перегони Формули 1
Країна: Іспанія
Телеканал: F1 TV
Коментатор: Максим Подзігун

Опис:
Кваліфікація п'ятого етапу Гран-Прі Іспанії 2019 року.


Якість:

Відео:кодек: розмір кадру: 1920 х 1080 бітрейт: 5500 кб/с
Аудіо # 1: мова: українська кодек: MP2 2.0 бітрейт: 192 кб/с
Аудіо # 2: мова: англійська кодек: 2.0 бітрейт: 90 кб/с
Тривалість:
01:13:38
Про файл:
General
Unique ID : 283240314738834363660146770988010375455 (0xD51619B147855C9E326D2D4BA861091F)
Complete name : G:\Torrents2\SPORT\Formula 1\F1.2019.Qualifying\F1.2019.05.Spanish.Qualifying.1080p..Ukr.Eng.
Format :
Format version : Version 4
File size : 2.96 GiB
Duration : 1 h 13 min
Overall bit rate : 5 756 kb/s
Encoded date : UTC 2019-05-11 17:10:44
Writing application : v33.1.0 ('Primrose') 64-bit
Writing library : libebml v1.3.7 + v1.5.0

Video
ID : 1
Format : AVC
Format/Info : Advanced Video Codec
Format profile : [email protected]
Format settings : CABAC / 4 Ref Frames
Format settings, CABAC : Yes
Format settings, ReFrames : 4 frames
Format settings, GOP : M=4, N=50
Codec ID : V_MPEG4/ISO/AVC
Duration : 1 h 13 min
Bit rate mode : Constant
Bit rate : 5 500 kb/s
Width : 1 920 pixels
Height : 1 080 pixels
Display aspect ratio : 16:9
Frame rate mode : Constant
Frame rate : 25.000 FPS
Color space : YUV
Chroma subsampling : 4:2:0
Bit depth : 8 bits
Scan type : Progressive
Bits/(Pixel*Frame) : 0.106
Stream size : 2.83 GiB (96%)
Language : English
Default : Yes
Forced : No

Audio #1
ID : 2
Format : MPEG Audio
Format version : Version 1
Format profile : Layer 2
Codec ID : A_MPEG/L2
Codec ID/Hint : MP2
Duration : 1 h 13 min
Bit rate mode : Constant
Bit rate : 192 kb/s
Channel(s) : 2 channels
Sampling rate : 48.0 kHz
Frame rate : 41.667 FPS (1152 SPF)
Compression mode : Lossy
Stream size : 101 MiB (3%)
Title : Максим Подзігун
Language : Ukrainian
Default : Yes
Forced : Yes

Audio #2
ID : 3
Format : LC
Format/Info : Advanced Audio Codec Low Complexity
Codec ID : A_AAC-2
Duration : 1 h 13 min
Bit rate : 61.7 kb/s
Channel(s) : 2 channels
Channel layout : L R
Sampling rate : 44.1 kHz
Frame rate : 43.066 FPS (1024 SPF)
Compression mode : Lossy
Stream size : 32.5 MiB (1%)
Language : English
Default : No
Forced : No
Скріншоти:



Зведення: sergiyko


 Трекер:    Зареєстрований   

Завантажити / скачати торрент



відео для новачків



 Зареєстрований:   2019-05-11 20:21
 Розмір:   2.96 GB 
 Оцінка:   10/10 (Голосів: 15)
   
DimitriosXO 
Новенький


З нами з: 06.07.17
Востаннє: 17.05.19
Повідомлень: 7

2019-05-12 16:57  
Дякую! А перегони ввечері чекати?
sergiyko.5 
VIP


З нами з: 25.02.16
Востаннє: 24.05.19
Повідомлень: 2288

2019-05-12 21:47  
Я беру звук на фейсбук група F1UA, на цю хвилину звук вони не надали. Я спать, завтра на роботу.

Перегонів від мене не буде.

alexhap 
Новенький


З нами з: 23.09.16
Востаннє: 23.05.19
Повідомлень: 16

2019-05-12 22:01  
жаль, дякую за інформацію
DimitriosXO 
Новенький


З нами з: 06.07.17
Востаннє: 17.05.19
Повідомлень: 7

2019-05-13 00:48  
До речі майже бездоганний ріп! Чудова якість, лише зо два рази побачив на мить атрефакти. Таке б і надалі!
armogun 
Попереджень: 1
Попереджень: 1 


З нами з: 04.05.13
Востаннє: 23.05.19
Повідомлень: 477

2019-05-13 11:18  
Гонка нудна до блювоти. Відразу на 40-е коло мотайте https://drive.google.com/open?id=1YIL6OfaGQ3-3X_pp7COivPSHdqciqZLZ
legioneRRR 
Частий відвідувач


З нами з: 02.01.15
Востаннє: 23.05.19
Повідомлень: 32

2019-05-13 11:34  
armogun написано:
Гонка https://drive.google.com/open?id=1YIL6OfaGQ3-3X_pp7COivPSHdqciqZLZ

Якою мовою коментар?

Шумадан 
Новенький


З нами з: 23.06.09
Востаннє: 21.05.19
Повідомлень: 3

2019-05-13 12:05  
вже опубліковано укранську трансляцію в F1UA групі на ФБ
armogun 
Попереджень: 1
Попереджень: 1 


З нами з: 04.05.13
Востаннє: 23.05.19
Повідомлень: 477

2019-05-13 12:34  
я краще інтершум буду слухати ніж Подзігуна, який половину часу розказує про донейти і нічого в формулі не петрає
anatoxa 
Новенький


З нами з: 24.10.14
Востаннє: 22.05.19
Повідомлень: 7

2019-05-13 17:19  
armogun
Дуже дивно, що ви робите в даній темі. 8 євро на місяць і ніхто не докучатиме з донатом (як винагорода за те, що робить Максим та команда)
https://www.formula1.com/en/subscribe-to-f1-tv.html#en

І так, "не петрає зовсім", ага
https://www.patreon.com/MaksPodzigun

butser 
Новенький


З нами з: 10.04.18
Востаннє: 20.05.19
Повідомлень: 8

2019-05-13 19:13  
armogun написано:
Гонка нудна до блювоти. Відразу на 40-е коло мотайте https://drive.google.com/open?id=1YIL6OfaGQ3-3X_pp7COivPSHdqciqZLZ

Ою дякую дуже за Pre race and Post race

armogun 
Попереджень: 1
Попереджень: 1 


З нами з: 04.05.13
Востаннє: 23.05.19
Повідомлень: 477

2019-05-13 19:31  
[b]anatoxa[/b]
Можна починати перелічувати ?
1. Він часто згадує " які класні боліди феррарі, подивіться як плавно працюють кермом, як на круїзному авто, " . Плавність роботи кермом це скіл пілота і техніка збереження резини. І більше навпаки ! Якщо на боліді можуть дозволити собі різкі рухи - ось ознака хорошої аеродинаміки

zordexxx 
Новенький


З нами з: 21.04.16
Востаннє: 21.05.19
Повідомлень: 4

2019-05-14 20:00  
може хтось має бажання залити) 21 гектар
https://fex.net/s/tldfm44

Farazoon 
Новенький


З нами з: 12.04.12
Востаннє: 24.05.19
Повідомлень: 21

2019-05-14 21:33  
zordexxx
є вже версія від шеви на торентс

Ваш часовий пояс: GMT + 2 Години

Нова тема   Відповісти