Брекзит / Brexit: The Uncivil War (2019) 720p Ukr/Eng | Sub Eng

Нові коментарі

Нова тема   Відповісти
Автор Повідомлення
Anonymous 







2019-05-11 09:54  

Брекзит / Brexit: The Uncivil War (2019) 720p Ukr/Eng | Sub Eng



Жанр: історична драма, біографічний
Країна: Велика Британія



Кінокомпанія: HBO, Baffin Media, Channel 4 Television Corporation, House Productions
Режисер: Тобі Гейнс / Toby Haynes
Актори: Бенедикт Камбербетч / Benedict Cumberbatch, Сара Белчер / Sarah Belcher , Малкольм Фрімен / Malcolm Freeman, Люсі Рассел / Lucy Russell, Олівер Берч / Oliver Birch та інші.

Сюжет:
Головний герой стрічки - голова й ідейний натхненник кампанії у підтримку виходу Великої Британії з Євросоюзу "Vote Leave" Домінік Каммінґс, якого грає Бенедикт Камбербетч.

Режисер – Тобі Гейнс, який працював над «Шерлоком», «Доктором Хто» та «Чорним дзеркалом».
Український трейлер від НеЗупиняйПродакшн:

Тривалість: 01:37:23
Якість: 720p

Відео:
кодек:
розмір кадру: 1280x720
бітрейт: 2803 Кб/с

Аудіо # 1:
мова: українська
переклад: професійний багатоголосий закадровий
кодек: 5.1
бітрейт: 640 кб/с

Перекладено та озвучено студією НеЗупиняйПродакшн


Аудіо # 2:
мова: англійська
переклад: оригінал
кодек: E- 5.1
бітрейт: 640 кб/с

Субтитри:
мова: англійська
тип: програмні (м'які)
формат: *.srt
Info
Код:

Complete name               : Brexit. The Uncivil War (2019) [Ukr,Eng sub.Eng] 720p [Hurtom].
Format                      :
Format version              : Version 4
File size                   : 2.78 GiB
Duration                    : 1 h 37 min
Overall bit rate            : 4 086 kb/s
Movie name                  : Брекзит / Brexit: The Uncivil War (2019) [Ukr,Eng sub.Eng] 720p [Hurtom]
Encoded date                : UTC 2019-05-11 19:59:55
Writing application         : v33.1.0 ('Primrose') 64-bit
Writing library             : libebml v1.3.7 + v1.5.0
Cover                       : Yes
Attachments                 : cover.jpg

Video
ID                          : 1
Format                      : AVC
Format/Info                 : Advanced Video Codec
Format profile              : [email protected]
Format settings             : CABAC / 5 Ref Frames
Format settings, CABAC      : Yes
Format settings, Reference  : 5 frames
Codec ID                    : V_MPEG4/ISO/AVC
Duration                    : 1 h 37 min
Bit rate                    : 2 803 kb/s
Width                       : 1 280 pixels
Height                      : 704 pixels
Display aspect ratio        : 16:9
Frame rate mode             : Constant
Frame rate                  : 23.976 (24000/1001) FPS
Color space                 : YUV
Chroma subsampling          : 4:2:0
Bit depth                   : 8 bits
Scan type                   : Progressive
Bits/(Pixel*Frame)          : 0.130
Stream size                 : 1.91 GiB (69%)
Title                       : Брекзит / Brexit: The Uncivil War (2019).720p..-METCON
Writing library             : core 157 r2935 545de2f
Encoding settings           : cabac=1 / ref=5 / deblock=1:-3:-3 / analyse=0x3:0x113 / me=umh / subme=8 / psy=1 / psy_rd=1.00:0.00 / mixed_ref=1 / me_range=16 / chroma_me=1 / trellis=2 / 8x8dct=1 / cqm=0 / deadzone=21,11 / fast_pskip=1 / chroma_qp_offset=-2 / threads=22 / lookahead_threads=3 / sliced_threads=0 / nr=0 / decimate=1 / interlaced=0 / bluray_compat=0 / constrained_intra=0 / bframes=3 / b_pyramid=2 / b_adapt=1 / b_bias=0 / direct=3 / weightb=1 / open_gop=0 / weightp=2 / keyint=250 / keyint_min=23 / scenecut=40 / intra_refresh=0 / rc_lookahead=50 / rc=crf / mbtree=1 / crf=18.0 / qcomp=0.60 / qpmin=0 / qpmax=69 / qpstep=4 / ip_ratio=1.40 / aq=3:1.00
Language                    : English
Default                     : Yes
Forced                      : No

Audio #1
ID                          : 2
Format                      : AC-3
Format/Info                 : Audio Coding 3
Commercial name             : Dolby Digital
Codec ID                    : A_AC3
Duration                    : 1 h 37 min
Bit rate mode               : Constant
Bit rate                    : 640 kb/s
Channel(s)                  : 6 channels
Channel layout              : L R C LFE Ls Rs
Sampling rate               : 48.0 kHz
Frame rate                  : 31.250 FPS (1536 SPF)
Bit depth                   : 16 bits
Compression mode            : Lossy
Delay relative to video     : -23 ms
Stream size                 : 446 MiB (16%)
Title                       : MVO [NeZupynyajProduction] 5.1 640 Kbps
Language                    : Ukrainian
Service kind                : Complete Main
Default                     : Yes
Forced                      : No

Audio #2
ID                          : 3
Format                      : E-AC-3
Format/Info                 : Enhanced AC-3
Commercial name             : Dolby Digital Plus
Codec ID                    : A_EAC3
Duration                    : 1 h 37 min
Bit rate mode               : Constant
Bit rate                    : 640 kb/s
Channel(s)                  : 6 channels
Channel layout              : L R C LFE Ls Rs
Sampling rate               : 48.0 kHz
Frame rate                  : 31.250 FPS (1536 SPF)
Compression mode            : Lossy
Delay relative to video     : -18 ms
Stream size                 : 446 MiB (16%)
Title                       : Original, E- 5.1.640 Kbps
Language                    : English
Service kind                : Complete Main
Default                     : No
Forced                      : No

Text
ID                          : 4
Format                      : UTF-8
Codec ID                    : S_TEXT/UTF8
Codec ID/Info               : UTF-8 Plain Text
Duration                    : 1 h 36 min
Bit rate                    : 93 b/s
Count of elements           : 1837
Stream size                 : 66.1 KiB (0%)
Language                    : English
Default                     : No
Forced                      : No


Джерело: &

11.05.2019 о 23.10 реліз було оновлено - виправлено розсинхрон.
Перезавантажте, будь ласка, торент.


Авторський реліз (завантажувати можна без реєстрації)
 Трекер:    Зареєстрований   

Завантажити / скачати фільм українською



відео для новачків



 Зареєстрований:   2019-05-11 22:10
 Розмір:   2.78 GB 
 Оцінка фільму:   9.9/10 (Голосів: 26)
 ЗАЛИШАЙТЕСЬ ЯКОМОГА ДОВШЕ НА РОЗДАЧІ! ЗАВАНТАЖИВ САМ - ДАЙ ЗАВАНТАЖИТИ ІНШИМ!
   
casper101 
VIP


З нами з: 03.12.09
Востаннє: 11.11.19
Повідомлень: 432

2019-05-11 11:27  
круто!!!
_Oliko_ 
Новенький


З нами з: 10.03.12
Востаннє: 19.10.19
Повідомлень: 2

2019-05-11 17:36  
Українська доріжка відстає від кіна.
пан Струмок 
Поважний учасник


З нами з: 19.02.13
Востаннє: 10.11.19
Повідомлень: 217

2019-05-11 18:17  
Плужне дублювання нанівець пересерає перегляд
Wowatorrent 
Поважний учасник


З нами з: 23.03.16
Востаннє: 12.11.19
Повідомлень: 167

2019-05-11 21:05  
Звук не співпадає з картинкою.
Anonymous 







2019-05-11 22:14  
Реліз оновлено, розсинхрон виправлено.
Перезавантажте, будь ласка, торент. Вибачте за незручності.

Хто не бажає завантажувати знову - можете виставити затримку для української доріжки -4973 ms.

demitsuru 
Попереджень: 1
Попереджень: 1 


З нами з: 13.11.16
Востаннє: 08.11.19
Повідомлень: 514

2019-05-12 01:33  
Фільм шедевр. Паралель з Україною.
Ваш часовий пояс: GMT + 2 Години

Нова тема   Відповісти