Листоноша завжди дзвонить двічі / The Postman Always Rings Twice (1981) Remux 1080p 3xUkr/Eng | Sub Eng

Нові коментарі

Нова тема   Відповісти
Автор Повідомлення
MakRA 
Поважний учасник


З нами з: 11.11.18
Востаннє: 23.05.19
Повідомлень: 199

2019-05-11 02:27  
Листоноша завжди дзвонить двічі / The Postman Always Rings Twice (1981) Remux 1080p 3xUkr/Eng | Sub Eng

Листоноша завжди дзвонить двічі / The Postman Always Rings Twice (1981) Remux 1080p 3xUkr/Eng | Sub Eng

Альтернативна обкладинка та український постер від Тирік'а:





Жанр: кримінальний, мелодрама, трилер
Країна: США, Німеччина



Кінокомпанія: CIP Filmproduktion GmbH, Lorimar Film Entertainment, Metro-Goldwyn-Mayer (MGM)
Режисер: Боб Рефелсон [Bob Rafelson]
Актори: Джек Ніколсон [Jack Nicholson], Джессіка Ленг [Jessica Lange], Джон Колікос [John Colicos], Майкл Лернер [Michael Lerner], Джон П. Райан [John P. Ryan], Анжеліка Г'юстон [Anjelica Huston], Вільям Трейлор [William Traylor], Томас Гілл [Thomas Hill], Крістофер Ллойд [Christopher Lloyd].

Сюжет:
Часи Великої Депресії. Волоцюга Френк Чемберс наймається в працівники до старого грека Ніка Пападакіса, який разом із молодою дружиною Корою тримає таверну.

Променем світла в темному царстві стала для Кори поява Френка в їхньому будинку. Знесилена в нудному і безпристрасному шлюбі, вона закохується у Френка. Між ними спалахує нестримна пристрасть і Корі спадає на думку позбутися від чоловіка...

Режисер Боб Рефелсон зняв по-справжньому сильний, жорсткий і натуралістичний фільм. Участь Джека Ніколсона і Джесіки Ланж, що зіграли у фільмі головні ролі, а також Анжеліки Х'юстон, Майкла Лернера і Крістофера Ллойда дозволило поставити кінострічку у ряд найвідоміших сучасних американських картин.


Тривалість: 02:01:16
Якість: Remux 1080p

Відео:
кодек:
розмір кадру: 1920 х 1080
бітрейт: 18,4 Мб/с

Аудіо # 1:
мова: українська
переклад: багатоголосий закадровий
кодек: 2.0
бітрейт: 192 кб/с
Про озвучення:
Ролі озвучили:Джек Ніколсон — Олесь Гімбаржевський, Владислав Пупков, Ніна Касторф.
Аудіо # 2:
мова: українська
переклад: двоголосий закадровий
кодек: 2.0
бітрейт: 192 кб/с
Про озвучення:
Ролі озвучили:Владислав Пупков, Світлана Круть.
Аудіо # 3:
мова: українська
переклад: багатоголосий закадровий | Студія "ТакТребаПродакшн"
кодек: 2.0
бітрейт: 192 кб/с
Про озвучення:
Ролі озвучили:Джек Ніколсон — Олег Стальчук, Анатолій Пашнін і два жіночих.
Аудіо # 4:
мова: англійська
переклад: оригінал
кодек: 1.0
бітрейт: 96 кб/с

Аудіо # 5:
мова: англійська
переклад: оригінал
кодек: -HD MA 1.0
бітрейт: 882 кб/с

Субтитри:
мова: англійська
тип: програмні (м'які)
формат: *.srt

Збережено оригінальні розділи, як на Blu-ray.
Info
General
Unique ID : 79885800235411806824775004911032633128 (0x3C19720B0218BDA51E9C930E6DE88728)
Complete name : F:\Триллери, кримінал\The Postman Always Rings Twice (1981) Remux 1080p 3xUkrEng Sub Eng [Hurtom].
Format :
Format version : Version 4 / Version 2
File size : 16.9 GiB
Duration : 2 h 1 min
Overall bit rate mode : Variable
Overall bit rate : 19.9 Mb/s
Movie name : Листоноша завжди дзвонить двічі / The Postman Always Rings Twice (1981) Remux 1080p 3xUkr/Eng | Sub Eng [Hurtom]
Encoded date : UTC 2019-05-10 06:10:13
Writing application : v25.0.0 ('Prog Noir') 64-bit
Writing library : libebml v1.3.6 + v1.4.9
Cover : Yes
Attachments : cover.jpg

Video
ID : 1
Format : AVC
Format/Info : Advanced Video Codec
Format profile : [email protected]
Format settings, CABAC : Yes
Format settings, RefFrames : 2 frames
Codec ID : V_MPEG4/ISO/AVC
Duration : 2 h 1 min
Bit rate mode : Variable
Bit rate : 18.4 Mb/s
Width : 1 920 pixels
Height : 1 080 pixels
Display aspect ratio : 16:9
Frame rate mode : Constant
Frame rate : 23.976 (24000/1001) FPS
Color space : YUV
Chroma subsampling : 4:2:0
Bit depth : 8 bits
Scan type : Progressive
Bits/(Pixel*Frame) : 0.370
Stream size : 15.6 GiB (92%)
Title : The Postman Always Rings Twice (1981) Remux 1080p 3xUkr/Eng | Sub Eng [Hurtom]
Language : Ukrainian
Default : Yes
Forced : Yes

Audio #1
ID : 2
Format : AC-3
Format/Info : Audio Coding 3
Format settings, Endianness : Big
Codec ID : A_AC3
Duration : 2 h 1 min
Bit rate mode : Constant
Bit rate : 192 kb/s
Channel(s) : 2 channels
Channel positions : Front: L R
Sampling rate : 48.0 kHz
Frame rate : 31.250 FPS (1536 SPF)
Bit depth : 16 bits
Compression mode : Lossy
Stream size : 167 MiB (1%)
Title : Ukr [Inter]
Language : Ukrainian
Service kind : Complete Main
Default : Yes
Forced : Yes

Audio #2
ID : 3
Format : AC-3
Format/Info : Audio Coding 3
Format settings, Endianness : Big
Codec ID : A_AC3
Duration : 2 h 1 min
Bit rate mode : Constant
Bit rate : 192 kb/s
Channel(s) : 2 channels
Channel positions : Front: L R
Sampling rate : 48.0 kHz
Frame rate : 31.250 FPS (1536 SPF)
Bit depth : 16 bits
Compression mode : Lossy
Stream size : 167 MiB (1%)
Title : Ukr [1+1]
Language : Ukrainian
Service kind : Complete Main
Default : No
Forced : No

Audio #3
ID : 4
Format : AC-3
Format/Info : Audio Coding 3
Format settings, Endianness : Big
Codec ID : A_AC3
Duration : 2 h 1 min
Bit rate mode : Constant
Bit rate : 192 kb/s
Channel(s) : 2 channels
Channel positions : Front: L R
Sampling rate : 48.0 kHz
Frame rate : 31.250 FPS (1536 SPF)
Bit depth : 16 bits
Compression mode : Lossy
Stream size : 167 MiB (1%)
Title : Ukr [ICTV]
Language : Ukrainian
Service kind : Complete Main
Default : No
Forced : No

Audio #4
ID : 5
Format : AC-3
Format/Info : Audio Coding 3
Format settings, Endianness : Big
Codec ID : A_AC3
Duration : 2 h 1 min
Bit rate mode : Constant
Bit rate : 96.0 kb/s
Channel(s) : 1 channel
Channel positions : Front: C
Sampling rate : 48.0 kHz
Frame rate : 31.250 FPS (1536 SPF)
Bit depth : 16 bits
Compression mode : Lossy
Stream size : 83.3 MiB (0%)
Title : Eng
Language : English
Service kind : Complete Main
Default : No
Forced : No

Audio #5
ID : 6
Format :
Format/Info : Digital Theater Systems
Format profile : MA / Core
Mode : 16
Format settings, Endianness : Big
Codec ID : A_DTS
Duration : 2 h 1 min
Bit rate mode : Variable / Constant
Bit rate : 822 kb/s / 768 kb/s
Channel(s) : 1 channel
Channel positions : Front: C
Sampling rate : 48.0 kHz
Frame rate : 93.750 FPS (512 SPF)
Bit depth : 24 bits
Compression mode : Lossless / Lossy
Stream size : 713 MiB (4%)
Title : Eng -HD MA
Language : English
Default : No
Forced : No

Text
ID : 7
Format : UTF-8
Codec ID : S_TEXT/UTF8
Codec ID/Info : UTF-8 Plain Text
Duration : 1 h 53 min
Bit rate : 32 b/s
Count of elements : 966
Stream size : 27.1 KiB (0%)
Title : Eng (Full)
Language : English
Default : No
Forced : No

Menu
00:00:00.000 : en:00:00:00.000
00:02:23.935 : en:00:02:23.935
00:08:21.625 : en:00:08:21.625
00:11:07.041 : en:00:11:07.041
00:15:41.605 : en:00:15:41.605
00:21:06.265 : en:00:21:06.265
00:24:01.565 : en:00:24:01.565
00:27:11.000 : en:00:27:11.000
00:31:30.134 : en:00:31:30.134
00:34:43.414 : en:00:34:43.414
00:38:55.081 : en:00:38:55.081
00:43:22.599 : en:00:43:22.599
00:46:23.864 : en:00:46:23.864
00:50:50.380 : en:00:50:50.380
00:54:48.159 : en:00:54:48.159
00:58:42.976 : en:00:58:42.976
01:02:46.804 : en:01:02:46.804
01:08:34.944 : en:01:08:34.944
01:10:58.087 : en:01:10:58.087
01:12:36.894 : en:01:12:36.894
01:16:15.153 : en:01:16:15.153
01:20:06.551 : en:01:20:06.551
01:23:21.703 : en:01:23:21.703
01:25:34.502 : en:01:25:34.502
01:29:03.502 : en:01:29:03.502
01:31:11.215 : en:01:31:11.215
01:35:17.042 : en:01:35:17.042
01:37:50.279 : en:01:37:50.279
01:43:54.895 : en:01:43:54.895
01:48:55.737 : en:01:48:55.737
01:58:15.087 : en:01:58:15.087
Скріншоти
Джерело: &
Особиста оцінка: 10 - без зайвих вагань рекомендую всім!
Подяка п. Lan за запис звуку (до 1 та 2 доріжок) та зведення, п. karvai0 за запис сирого звуку з ICTV


Золотий реліз (завантажене не впливає на рейтинг)
 Трекер:    Зареєстрований   

Завантажити / скачати фільм українською



відео для новачків



 Зареєстрований:   2019-05-11 02:27
 Розмір:   16.87 GB 
 Оцінка фільму:   9.8/10 (Голосів: 10)
   
olexo 
Новенький


З нами з: 09.12.16
Востаннє: 21.05.19
Повідомлень: 7

2019-05-17 15:07  
Якщо б було швидко відповісти, що таке справжнє кіно - то це, одна з небагатьох відповідей. Дуже Дякую.
MakRA 
Поважний учасник


З нами з: 11.11.18
Востаннє: 23.05.19
Повідомлень: 199

2019-05-18 00:14  
olexo
Будь ласка!

Ваш часовий пояс: GMT + 2 Години

Нова тема   Відповісти