Дивовижний збіг обставин / A Curious Conjunction of Coincidences / Een bizarre samenloop van omstandigheden (2011) Dut | sub Ukr

Нові коментарі

Нова тема   Відповісти
Автор Повідомлення
олеся грушка 
Частий відвідувач


З нами з: 24.10.16
Востаннє: 27.01.20
Повідомлень: 28

2019-05-10 18:36  
Дивовижний збіг обставин / A Curious Conjunction of Coincidences / Een bizarre samenloop van omstandigheden (2011) Dut | sub Ukr

Дивовижний збіг обставин / A Curious Conjunction of Coincidences / Een bizarre samenloop van omstandigheden (2011) Dut | sub Ukr


Жанр: комедія
Країна: Нідерланди



Кінокомпанія: NFTA
Режисер: Йост Реймерс / Joost Reijmers
Актори: Кеес Прінс / Kees Prins, Рональд ван Елдерен / Ronald van Elderen, Ваутер Звеерс / Wouter Zweers, Берт Гана / Bert Hana

Сюжет:
Не будемо звинувачувати Ферді, Еріха і Якоба, вони були у щасливому незнанні, в полоні ілюзії, що на терезах історії їхні дії небагато важать...


Тривалість: 00:08:32
Якість:
Відео:
кодек:
розмір кадру: 1280 х 720
бітрейт: 2494 кб/с

Аудіо:
мова: нідерландська
переклад: оригінал
кодек: 2.0
бітрейт: 121 кб/с

Субтитри:
мова: українська
тип: програмні (м'які)
формат: *.srt
переклад: олеся грушка

Info
General
Unique ID : 174813384435553823099498365328334590550 (0x8383D54B0C9D5352BC0A8B099CCD1256)
Complete name : /media/Een Bizarre Samenloop van Omstandigheden (2011).
Format :
Format version : Version 4 / Version 2
File size : 160 MiB
Duration : 8mn 32s
Overall bit rate : 2 618 Kbps
Movie name : Een Bizarre Samenloop van Omstandigheden (2011)
Encoded date : UTC 2019-05-08 22:47:07
Writing application : v8.8.0 ('Wind at my back') 64bit
Writing library : libebml v1.3.3 + v1.4.4
Attachments : poster.jpg

Video
ID : 1
Format : AVC
Format/Info : Advanced Video Codec
Format profile : [email protected]
Format settings, CABAC : Yes
Format settings, ReFrames : 4 frames
Codec ID : V_MPEG4/ISO/AVC
Duration : 8mn 32s
Bit rate : 2 494 Kbps
Width : 1 280 pixels
Height : 720 pixels
Display aspect ratio : 16:9
Frame rate mode : Constant
Frame rate : 25.000 fps
Color space : YUV
Chroma subsampling : 4:2:0
Bit depth : 8 bits
Scan type : Progressive
Bits/(Pixel*Frame) : 0.108
Stream size : 152 MiB (95%)
Writing library : Vimeo Encoder
Default : Yes
Forced : No

Audio
ID : 2
Format :
Format/Info : Advanced Audio Codec
Format profile : LC
Codec ID : A_AAC
Duration : 8mn 32s
Bit rate : 121 Kbps
Channel(s) : 2 channels
Channel positions : Front: L R
Sampling rate : 44.1 KHz
Frame rate : 43.066 fps (1024 spf)
Compression mode : Lossy
Stream size : 7.38 MiB (5%)
Default : Yes
Forced : No

Text
ID : 3
Format : UTF-8
Codec ID : S_TEXT/UTF8
Codec ID/Info : UTF-8 Plain Text
Duration : 7mn 49s
Bit rate : 96 bps
Count of elements : 66
Stream size : 5.52 KiB (0%)
Title : переклад олесі грушки
Language : Ukrainian
Default : Yes
Forced : No
Джерело:
Особиста оцінка: 10 - без зайвих вагань рекомендую всім!


Золотий реліз (завантажене не впливає на рейтинг)
 Трекер:    Зареєстрований   

Завантажити / скачати фільм українською



відео для новачків



 Зареєстрований:   2019-05-10 18:36
 Розмір:   160 MB 
 Оцінка фільму:   10/10 (Голосів: 4)
   
11FrYkT 
Модератор відео


З нами з: 20.02.11
Востаннє: 28.01.20
Повідомлень: 6472

2019-05-13 09:56  
олеся грушка , додайте звіт Медіаінфо
Ваш часовий пояс: GMT + 2 Години

Нова тема   Відповісти