Надміру турботливе хвостате Божество / Sewayaki Kitsune no Senko-san / The Helpful Fox Senko-san (серії 01- 12 з 12) (2019) 1080p Ukr/Jap | sub Ukr

Нові коментарі

Нова тема   Відповісти
Автор Повідомлення
ihabi 
VIP


З нами з: 01.03.13
Востаннє: 13.09.19
Повідомлень: 309

2019-05-09 23:13  
Надміру турботливе хвостате Божество / Sewayaki Kitsune no Senko-san / The Helpful Fox Senko-san (серії 01-12 з 12) (2019) 1080p Ukr/Jap | sub Ukr

Надміру турботливе хвостате Божество / Sewayaki Kitsune no Senko-san / 	The Helpful Fox Senko-san (серії 01- 12 з 12) (2019) 1080p Ukr/Jap | sub Ukr


Жанр: комедія, романтика, надприродне
Країна: Японія



6.50 (72 голосів)

Кінокомпанія: Dogakobo
Режисер: Кошіда Томоакі
Ролі озвучують: Сувабе Джюн Ічі, Вакі Адзумі, Сакура Аяне, Учіда Мая

Сюжет:
Життя Накано, звичайного клерка, який працює в бездушній компанії, сповнене рутини, безвиході і розмальоване чорними фарбами. Але несподівано чорний колір починає поступатись рудому, бо в його житті з’являється лисичка Сенко, 800-т літня Богиня, зовні схожа на дівчинку.
Вона зробить для нього все: готуватиме, прибиратиме і навіть більше! Усе заради того, щоб зцілити його змучену душу.


Тривалість: 1 серія: 23:44 (цілком серій: 12)
Перелік серій
1. Я ніжитиму його, скільки він забажає!
2. Та годі тобі, не соромся!
3. Просто щоб ти був щасливим!
4. Чому ти мусиш працювати у вихідний?!
5. Невже ти забув, що у мене також є хвостик?
6. Ти просто хочеш погратись з хвостиком?
7. Постривай... від тебе тхне іншою лисицею
8. Я допоможу тобі забути це!
9. Гаразд, а тепер тобі вже не так ніяково?
10. Приємно іноді впасти в дитинство, правда ж?
11. Схоже, це буде важка ніч...
12. Та навіть так...
Якість:
Відео:
кодек:
розмір кадру: 1920 х 1080
бітрейт: 8 000 кб/с

Аудіо #1:
мова: українська
переклад: багатоголосий закадровий
кодек: 2.0
бітрейт: 583 кб/с

Аудіо #2:
мова: японська
переклад: оригінал
кодек: 2.0
бітрейт: 253 кб/с

Субтитри #1:
мова: українська (написи)
тип: пререндерні
формат: *.

Субтитри #2:
мова: українська (повні)
тип: м'які
формат: *.

Переклад виконано:
Переклад: Костянтин Кіт
Редакція: Enelira
Оформлення субтитрів: Enelira

Озвучення виконано:
Текст читали: Enelira, ihabi, Korzhik, Zebadiya
Робота зі звуком: ihabi

Постер: Otaku-First

Джерело: MelodicVoiceStudio
Info
Format :
Format version : Version 4
File size : 1.46 GiB
Duration : 23 min 45 s
Overall bit rate mode : Variable
Overall bit rate : 8 808 kb/s
Encoded date : UTC 2019-05-09 19:49:07
Writing application : v33.1.0 ('Primrose') 64-bit
Writing library : libebml v1.3.7 + v1.5.0
Cover : Yes
Attachments : DS_Eraser2.ttf / Jakob_DP_Normal.ttf / Mateur.ttf / arial.ttf / arialbd.ttf / arialbi.ttf / ArialRoundedMTProCyr_1.otf / ArialRoundedMTProCyr-Bold_0.otf / Cocon_Bold.otf / cover.jpg / calibri.ttf / calibrib.ttf / calibriz.ttf / Jakob_DP_Normal.ttf / ariblk.ttf / Bangkok_Cyr.ttf

Video
ID : 1
Format : AVC
Format/Info : Advanced Video Codec
Format profile : [email protected]
Format settings : CABAC / 4 Ref Frames
Format settings, CABAC : Yes
Format settings, Reference : 4 frames
Codec ID : V_MPEG4/ISO/AVC
Duration : 23 min 44 s
Bit rate : 8 000 kb/s
Width : 1 920 pixels
Height : 1 080 pixels
Display aspect ratio : 16:9
Frame rate mode : Constant
Frame rate : 23.976 (24000/1001) FPS
Color space : YUV
Chroma subsampling : 4:2:0
Bit depth : 8 bits
Scan type : Progressive
Bits/(Pixel*Frame) : 0.161
Stream size : 1.31 GiB (90%)
Writing library : core 157 r2948 dada181
Encoding settings : cabac=1 / ref=1 / deblock=1:0:0 / analyse=0x3:0x113 / me=hex / subme=7 / psy=1 / psy_rd=1.00:0.00 / mixed_ref=0 / me_range=16 / chroma_me=1 / trellis=1 / 8x8dct=1 / cqm=0 / deadzone=21,11 / fast_pskip=1 / chroma_qp_offset=-2 / threads=24 / lookahead_threads=4 / sliced_threads=0 / nr=0 / decimate=1 / interlaced=0 / bluray_compat=0 / constrained_intra=0 / bframes=2 / b_pyramid=2 / b_adapt=1 / b_bias=0 / direct=1 / weightb=1 / open_gop=0 / weightp=2 / keyint=48 / keyint_min=4 / scenecut=40 / intra_refresh=0 / rc_lookahead=40 / rc=cbr / mbtree=1 / bitrate=8000 / ratetol=1.0 / qcomp=0.60 / qpmin=0 / qpmax=69 / qpstep=4 / vbv_maxrate=8000 / vbv_bufsize=24000 / nal_hrd=none / filler=0 / ip_ratio=1.40 / aq=1:1.00
Language : Japanese
Default : Yes
Forced : No

Audio #1
ID : 2
Format :
Format/Info : Free Lossless Audio Codec
Codec ID : A_FLAC
Duration : 23 min 45 s
Bit rate mode : Variable
Bit rate : 583 kb/s
Channel(s) : 2 channels
Channel layout : L R
Sampling rate : 48.0 kHz
Frame rate : 11.719 FPS (4096 SPF)
Bit depth : 16 bits
Compression mode : Lossless
Delay relative to video : -43 ms
Stream size : 99.0 MiB (7%)
Title : MelodicVoiceStudio
Writing library : libFLAC 20080709 (UTC 2008-07-09)
Language : Ukrainian
Default : Yes
Forced : Yes

Audio #2
ID : 3
Format : LC
Format/Info : Advanced Audio Codec Low Complexity
Codec ID : A_AAC-2
Duration : 23 min 45 s
Bit rate : 253 kb/s
Channel(s) : 2 channels
Channel layout : L R
Sampling rate : 48.0 kHz
Frame rate : 46.875 FPS (1024 SPF)
Compression mode : Lossy
Delay relative to video : -43 ms
Stream size : 43.0 MiB (3%)
Title : Jpn
Language : Japanese
Default : No
Forced : No

Text #1
ID : 4
Format :
Codec ID : S_TEXT/
Codec ID/Info : Advanced Sub Station Alpha
Duration : 23 min 44 s
Bit rate : 92 b/s
Count of elements : 43
Compression mode : Lossless
Stream size : 16.1 KiB (0%)
Title : Forced
Language : Ukrainian
Default : Yes
Forced : Yes

Text #2
ID : 5
Format :
Codec ID : S_TEXT/
Codec ID/Info : Advanced Sub Station Alpha
Duration : 23 min 44 s
Bit rate : 218 b/s
Count of elements : 307
Compression mode : Lossless
Stream size : 38.0 KiB (0%)
Title : Костянтин Hitler
Language : Ukrainian
Default : No
Forced : No
Скріншоти











Додано 12 серію. Проект завершено!


Особиста оцінка: 9 - давно не бачив настільки якісне кіно


Авторський реліз (завантажувати можна без реєстрації)
 Трекер:    Зареєстрований   

Завантажити / скачати аніме українською



відео для новачків



 Зареєстрований:   2019-07-01 23:22
 Розмір:   17.36 GB 
 Оцінка аніме:   8.3/10 (Голосів: 11)
   
ihabi 
VIP


З нами з: 01.03.13
Востаннє: 13.09.19
Повідомлень: 309

2019-05-12 21:31  

Додана 5 серія.

ihabi 
VIP


З нами з: 01.03.13
Востаннє: 13.09.19
Повідомлень: 309

2019-05-23 23:43  

Додана 6 серія.

ihabi 
VIP


З нами з: 01.03.13
Востаннє: 13.09.19
Повідомлень: 309

2019-06-18 00:17  

Додані 7-10 серії.

ihabi 
VIP


З нами з: 01.03.13
Востаннє: 13.09.19
Повідомлень: 309

2019-06-25 21:19  

Додана 11 серія.

ihabi 
VIP


З нами з: 01.03.13
Востаннє: 13.09.19
Повідомлень: 309

2019-07-01 23:23  

Додано 12 серію. Проект завершено!


Shaman7_7 
Новенький


З нами з: 16.11.11
Востаннє: 13.09.19
Повідомлень: 1

2019-07-08 08:49  
Вітаю. Чомусь не можу завантажити цей торент. Просто не починається завантаження.
Ваш часовий пояс: GMT + 2 Години

Нова тема   Відповісти