Таємниця школи мистецтв / Art School Confidential (2006) 720p Ukr/Eng | Sub Eng

Нові коментарі

Нова тема   Відповісти
Автор Повідомлення
Anonymous 







2019-05-09 18:46  
Таємниця школи мистецтв / Art School Confidential (2006) 720p Ukr/Eng | Sub Eng

Таємниця школи мистецтв / Art School Confidential (2006) 720p Ukr/Eng | Sub Eng


Жанр: комедія, драма
Країна: США



Кінокомпанія: United Artists, Sony Pictures Classics, Mr. Mudd
Режисер: Террі Цвігофф
Актори: Макс Мінгелла, Софія Майлс, Джон Малкович, Джим Броудбент, Метт Кіслар, Етан Саплі, Джоель Мур, Нік Свардсон, Анджеліка Х'юстон, Адам Скотт

Сюжет:
Як мовиться, геніальних художників багато, а ось тих, хто малювати уміє - мало ... Юний Джеремі Платц був упевнений: він зі своїм талантом точно проб'ється в кращі учні престижної школи мистецтв. А там недалеко і до світової слави! Ось тільки реальність виявляється не дуже близька до того, як герой собі все уявляв.
Найшвидше набирають бали зовсім не ті учні, хто дійсно обдарований, а ті, хто вміє себе грамотно пропіарити. Скандальна самореклама приносить більше, ніж безсонні ночі біля мольберта. Усвідомивши цю просту істину, Джером розробляє хитромудрий план, який неодмінно повинен зробити його суперзіркою найбільшого ярмарку пихатості - американської арт - сцени ...


Тривалість: 01:42:37
Якість: 720p
Відео:
кодек:
розмір кадру: 1280х696
бітрейт: 6112 кб/с

Аудіо # 1:
мова: українська
переклад: багатоголосий закадровий
кодек: 2.0
бітрейт: 192 кб/с

Аудіо # 2:
мова: англійська
переклад: оригінал
кодек: 5.1
бітрейт: 1509 кб/с

Субтитри:
мова: англійська
тип: програмні (м'які)
формат: *.srt
Info
General
Unique ID : 221570461343803015720590295486801317573 (0xA6B0EB2B4B67EB02986A416112EF0EC5)
Format :
Format version : Version 4
File size : 5.60 GiB
Duration : 1 h 42 min
Overall bit rate : 7 813 kb/s
Encoded date : UTC 2019-05-09 15:36:10
Writing application : v6.1.0 ('Old Devil') built on Mar 4 2013 09:10:42
Writing library : libebml v1.3.0 + v1.4.0

Video
ID : 1
Format : AVC
Format/Info : Advanced Video Codec
Format profile : [email protected]
Format settings : CABAC / 5 Ref Frames
Format settings, CABAC : Yes
Format settings, RefFrames : 5 frames
Codec ID : V_MPEG4/ISO/AVC
Duration : 1 h 42 min
Bit rate : 6 112 kb/s
Width : 1 280 pixels
Height : 696 pixels
Display aspect ratio : 1.85:1
Frame rate mode : Constant
Frame rate : 23.976 (24000/1001) FPS
Color space : YUV
Chroma subsampling : 4:2:0
Bit depth : 8 bits
Scan type : Progressive
Bits/(Pixel*Frame) : 0.286
Stream size : 4.27 GiB (76%)
Writing library : core 157 r2970 5493be8
Encoding settings : cabac=1 / ref=5 / deblock=1:-3:-3 / analyse=0x3:0x113 / me=umh / subme=8 / psy=1 / psy_rd=1.10:0.00 / mixed_ref=1 / me_range=24 / chroma_me=1 / trellis=2 / 8x8dct=1 / cqm=0 / deadzone=21,11 / fast_pskip=1 / chroma_qp_offset=-2 / threads=22 / lookahead_threads=3 / sliced_threads=0 / nr=0 / decimate=1 / interlaced=0 / bluray_compat=0 / constrained_intra=0 / bframes=3 / b_pyramid=2 / b_adapt=2 / b_bias=0 / direct=3 / weightb=1 / open_gop=0 / weightp=2 / keyint=240 / keyint_min=24 / scenecut=40 / intra_refresh=0 / rc_lookahead=50 / rc=2pass / mbtree=1 / bitrate=6112 / ratetol=1.0 / qcomp=0.60 / qpmin=0 / qpmax=69 / qpstep=4 / cplxblur=20.0 / qblur=0.5 / ip_ratio=1.40 / aq=3:0.70
Default : Yes
Forced : No
Statistics Tags Issue : no_variable_data 1970-01-01 00:00:00 / v6.1.0 ('Old Devil') built on Mar 4 2013 09:10:42 2019-05-09 15:36:10
FromStats_BitRate : 6109769
FromStats_Duration : 01:42:37.110000000
FromStats_FrameCount : 147623
FromStats_StreamSize : 4702315277

Audio #1
ID : 2
Format : AC-3
Format/Info : Audio Coding 3
Commercial name : Dolby Digital
Codec ID : A_AC3
Duration : 1 h 42 min
Bit rate mode : Constant
Bit rate : 192 kb/s
Channel(s) : 2 channels
Channel layout : L R
Sampling rate : 48.0 kHz
Frame rate : 31.250 FPS (1536 SPF)
Bit depth : 16 bits
Compression mode : Lossy
Stream size : 141 MiB (2%)
Title : UKR (AMC)
Language : Ukrainian
Service kind : Complete Main
Default : Yes
Forced : Yes

Audio #2
ID : 3
Format :
Format/Info : Digital Theater Systems
Codec ID : A_DTS
Duration : 1 h 42 min
Bit rate mode : Constant
Bit rate : 1 509 kb/s
Channel(s) : 6 channels
Channel layout : C L R Ls Rs LFE
Sampling rate : 48.0 kHz
Frame rate : 93.750 FPS (512 SPF)
Bit depth : 24 bits
Compression mode : Lossy
Stream size : 1.08 GiB (19%)
Language : English
Default : No
Forced : No
Statistics Tags Issue : no_variable_data 1970-01-01 00:00:00 / v6.1.0 ('Old Devil') built on Mar 4 2013 09:10:42 2019-05-09 15:36:10
FromStats_BitRate : 1508999
FromStats_Duration : 01:42:37.078000000
FromStats_FrameCount : 577226
FromStats_StreamSize : 1161378712

Text
ID : 4
Format : UTF-8
Codec ID : S_TEXT/UTF8
Codec ID/Info : UTF-8 Plain Text
Language : English
Default : No
Forced : No
Statistics Tags Issue : no_variable_data 1970-01-01 00:00:00 / v6.1.0 ('Old Devil') built on Mar 4 2013 09:10:42 2019-05-09 15:36:10
FromStats_BitRate : 58
FromStats_Duration : 01:41:03.389000000
FromStats_FrameCount : 1154
FromStats_StreamSize : 44584

Menu
00:00:00.000 : en:Chapter 01
00:05:22.489 : en:Chapter 02
00:06:30.640 : en:Chapter 03
00:09:08.048 : en:Chapter 04
00:12:44.764 : en:Chapter 05
00:15:59.959 : en:Chapter 06
00:17:20.122 : en:Chapter 07
00:21:05.097 : en:Chapter 08
00:25:05.587 : en:Chapter 09
00:29:14.253 : en:Chapter 10
00:32:56.558 : en:Chapter 11
00:35:47.312 : en:Chapter 12
00:39:43.882 : en:Chapter 13
00:43:14.592 : en:Chapter 14
00:47:00.359 : en:Chapter 15
00:49:15.119 : en:Chapter 16
00:52:23.390 : en:Chapter 17
00:54:24.595 : en:Chapter 18
00:58:15.200 : en:Chapter 19
01:02:19.069 : en:Chapter 20
01:05:56.202 : en:Chapter 21
01:10:07.537 : en:Chapter 22
01:13:26.152 : en:Chapter 23
01:18:08.934 : en:Chapter 24
01:21:57.413 : en:Chapter 25
01:24:21.890 : en:Chapter 26
01:33:05.246 : en:Chapter 27
Скріншоти








За звукову доріжку подяка п.: Sando7, Arsenfpu
Особиста подяка пану denixx за надану матеріальну допомогу на підтримку цього і майбутніх релізів.

Джерело:


 Трекер:    Зареєстрований   

Завантажити / скачати фільм українською



відео для новачків



 Зареєстрований:   2019-05-09 18:46
 Розмір:   5.6 GB 
 Оцінка фільму:   9.7/10 (Голосів: 3)
   
Інші релізи
Ваш часовий пояс: GMT + 2 Години

Нова тема   Відповісти