Мадлен / Madeline (1998) 720p Eng | Sub Ukr/Eng

Нові коментарі

Нова тема   Відповісти
Автор Повідомлення
Anonymous 







2019-05-09 14:30  
Мадлен / Madeline (1998) 720p Eng | Sub Ukr/Eng

Мадлен / Madeline (1998) 720p Eng | Sub Ukr/Eng


Жанр: комедія, сімейний
Країна: Франція, США



Кінокомпанія: Jaffilms, Madeline Films, TriStar Pictures
Режисер: Дейзі фон Шерлер Маєр / Daisy von Scherler Mayer
Актори: Гатті Джонс, Френсіс Мак-Дорманд, Крістіан Де-Ла-Оса, Найджел Готорн, Клайре Томас, Бен Деніелс, Біанка Штреман.

Сюжет:
Десятирічна дівчинка Мадлен, батьки якої померли, навчається в маленькій школі для дівчаток в Парижі. На жаль, помирає місіс Ковінгтон, на кошти якої і існує школа на чолі з черницею міс Клавель.
Злий чоловік покійної пані хоче закрити школу, а будинок продати, але Мадлен, що відрізняється розумом, кмітливістю та жвавістю, ніяк не може цього допустити. В цей нехитрий сюжет включена і лінія з викраденням Пепіто, дванадцятирічного сина іспанського посла, який живе в сусідньому особняку. Під час походу в цирк зловмисники викрали його разом з Мадлен, яка як раз вирішила втекти разом з цирковою трупою. Ось тут і починаються справжні пригоди ...


Тривалість: 01:29:05
Якість: 720p
Відео:
кодек:
розмір кадру: 1280x718
бітрейт: 4000 кб/с

Аудіо:
мова: англійська
переклад: оригінал
кодек: 2.0
бітрейт: 158 кб/с

Субтитри:
мова: українська
тип: програмні (м'які)
формат: *.srt

Субтитри:
мова: англійська
тип: програмні (м'які)
формат: *.srt
Скріншоти







МІ
Video
ID : 1
Format : AVC
Format/Info : Advanced Video Codec
Format profile : [email protected]
Format settings : 2 Ref Frames
Format settings, CABAC : No
Format settings, ReFrames : 2 frames
Codec ID : V_MPEG4/ISO/AVC
Duration : 1 h 29 min
Bit rate : 4 065 kb/s
Width : 1 280 pixels
Height : 718 pixels
Display aspect ratio : 16:9
Frame rate mode : Constant
Frame rate : 23.976 (23976/1000) FPS
Color space : YUV
Chroma subsampling : 4:2:0
Bit depth : 8 bits
Scan type : Progressive
Bits/(Pixel*Frame) : 0.185
Stream size : 2.53 GiB (96%)
Language : English
Default : Yes
Forced : No
Color range : Limited
Color primaries : BT.709
Transfer characteristics : BT.709
Matrix coefficients : BT.709

Audio
ID : 2
Format : LC
Format/Info : Advanced Audio Codec Low Complexity
Codec ID : A_AAC-2
Duration : 1 h 29 min
Bit rate : 158 kb/s
Channel(s) : 2 channels
Channel layout : L R
Sampling rate : 48.0 kHz
Frame rate : 46.875 FPS (1024 SPF)
Compression mode : Lossy
Stream size : 101 MiB (4%)
Language : English
Default : Yes
Forced : No

Text #1
ID : 3
Format : UTF-8
Codec ID : S_TEXT/UTF8
Codec ID/Info : UTF-8 Plain Text
Duration : 1 h 27 min
Bit rate : 68 b/s
Count of elements : 828
Stream size : 44.1 KiB (0%)
Language : Ukrainian
Default : Yes
Forced : No

Text #2
ID : 4
Format : UTF-8
Codec ID : S_TEXT/UTF8
Codec ID/Info : UTF-8 Plain Text
Duration : 1 h 27 min
Bit rate : 52 b/s
Count of elements : 1880
Stream size : 33.7 KiB (0%)
Language : English
Default : No
Forced : No

Menu
00:00:00.000 : en:1
00:06:13.000 : en:2
00:10:30.000 : en:3
00:16:25.000 : en:4
00:25:36.000 : en:5
00:30:00.000 : en:6
00:36:58.000 : en:7
00:43:37.000 : en:8
00:48:09.000 : en:9
00:54:13.000 : en:10
00:58:29.000 : en:11
01:05:52.000 : en:12
01:09:51.000 : en:13
01:13:18.000 : en:14
01:17:30.000 : en:15
01:24:33.000 : en:16
Джерело:
Особиста оцінка: 8 - мені сподобалося


 Трекер:    Зареєстрований   

Завантажити / скачати фільм українською



відео для новачків



 Зареєстрований:   2019-05-09 14:30
 Розмір:   2.63 GB 
 Оцінка фільму:   -/10 (Голосів: 0)
   
Ваш часовий пояс: GMT + 2 Години

Нова тема   Відповісти