Термінатор. Генезис / Terminator. Genisys (2015) Remux 1080p Ukr/Eng | Sub Ukr/Eng

Нові коментарі

Нова тема   Відповісти
Автор Повідомлення
MakRA 
Поважний учасник


З нами з: 11.11.18
Востаннє: 18.06.19
Повідомлень: 228

2019-05-09 01:10  
Термінатор. Генезис / Terminator. Genisys (2015) Remux 1080p Ukr/Eng | Sub Ukr/Eng



Українські постери:




Жанр: екшн, фантастика, пригодницький
Країна: США



Кінокомпанія: Paramount Pictures, Skydance Productions
Режисер: Алан Тейлор [Alan Taylor]
Актори: Арнольд Шварценеґґер [Arnold Schwarzenegger], Джейсон Кларк [Jason Clarke], Емілія Кларк [Emilia Clarke], Джей Кортні [Jai Courtney], Дж. К. Сіммонс [J.K. Simmons], Дайо Окенайї [Dayo Okeniyi], Метт Сміт [Matt Smith], Кортні Б. Венс [Courtney B. Vance], Бен Хан Лі [Byung-hun Lee], Сандрін Голт [Sandrine Holt]

Сюжет:
На межі перемоги у війні проти "Скайнет", Джон Коннор посилає в минуле свого довіреного сержанта Кайла Різа, щоб той врятував його матір від посланого "Скайнет" Термінатора і забезпечив існування Джона в сучасності. Але несподіваний поворот подій створює розлом у часі. Сержант опиняється в новій, незнайомій версії минулого. Тут осиротіла в дев'ять років Сара Коннор була вихована Термінатором (Арнольд Шварценеггер), який запрограмований захищати дівчину. Термінатор тренував її, готуючи до долі, яку Сара категорично відкидає. Разом їм належить боротися з новими небезпечними ворогами. Їхня нова місія: переписати майбутнє.


Тривалість: 02:05:42
Якість: Remux 1080p

Відео:
кодек:
розмір кадру: 1920 х 1080
бітрейт: 24.4 кб/с

Аудіо # 1:
мова: українська
переклад: професійний дубльований
кодек: 5.1
бітрейт: 448 кб/с

Аудіо # 2:
мова: англійська
переклад: оригінал
кодек: 5.1
бітрейт: 448 кб/с

Аудіо # 3:
мова: англійська
переклад: оригінал
кодек: -HD MA 7.1
бітрейт: 4 443 кб/с

Субтитри # 1-2: (Forced / Full)
мова: українська
тип: програмні (м'які)
формат: *.srt

Субтитри # 3-5: (Full / SDH / SDH-Colored)
мова: англійська
тип: програмні (м'які)
формат: *.srt

Збережено оригінальні розділи, як на Blu-ray.
Info
General
Unique ID : 308924965303114469739797622398141285286 (0xE868C8BC63E10C4056C052B8F4E743A6)
Complete name : H:\Термінатор. Колекція (1984-2015) 1080p\Terminator. Genisys (2015) Remux 1080p UkrEng Sub UkrEng [Hurtom].
Format :
Format version : Version 4 / Version 2
File size : 26.2 GiB
Duration : 2 h 5 min
Overall bit rate mode : Variable
Overall bit rate : 29.8 Mb/s
Movie name : Термінатор. Генезис / Terminator. Genisys (2015) Remux 1080p Ukr/Eng | Sub Ukr/Eng [Hurtom]
Encoded date : UTC 2019-05-08 17:29:09
Writing application : v25.0.0 ('Prog Noir') 64-bit
Writing library : libebml v1.3.6 + v1.4.9

Video
ID : 1
Format : AVC
Format/Info : Advanced Video Codec
Format profile : [email protected]
Format settings, CABAC : Yes
Format settings, RefFrames : 4 frames
Codec ID : V_MPEG4/ISO/AVC
Duration : 2 h 5 min
Bit rate mode : Variable
Bit rate : 24.4 Mb/s
Maximum bit rate : 32.0 Mb/s
Width : 1 920 pixels
Height : 1 080 pixels
Display aspect ratio : 16:9
Frame rate mode : Constant
Frame rate : 23.976 (24000/1001) FPS
Color space : YUV
Chroma subsampling : 4:2:0
Bit depth : 8 bits
Scan type : Progressive
Bits/(Pixel*Frame) : 0.491
Stream size : 21.4 GiB (82%)
Title : Terminator. Genisys (2015) Remux 1080p Ukr/Eng | Sub Ukr/Eng [Hurtom]
Language : Ukrainian
Default : Yes
Forced : Yes

Audio #1
ID : 2
Format : AC-3
Format/Info : Audio Coding 3
Format settings, Endianness : Big
Codec ID : A_AC3
Duration : 2 h 5 min
Bit rate mode : Constant
Bit rate : 448 kb/s
Channel(s) : 6 channels
Channel positions : Front: L C R, Side: L R, LFE
Sampling rate : 48.0 kHz
Frame rate : 31.250 FPS (1536 SPF)
Bit depth : 16 bits
Compression mode : Lossy
Stream size : 403 MiB (2%)
Title : DUB DVD 5.1
Language : Ukrainian
Service kind : Complete Main
Default : Yes
Forced : Yes

Audio #2
ID : 3
Format : AC-3
Format/Info : Audio Coding 3
Format settings, Endianness : Big
Codec ID : A_AC3
Duration : 2 h 5 min
Bit rate mode : Constant
Bit rate : 448 kb/s
Channel(s) : 6 channels
Channel positions : Front: L C R, Side: L R, LFE
Sampling rate : 48.0 kHz
Frame rate : 31.250 FPS (1536 SPF)
Bit depth : 16 bits
Compression mode : Lossy
Stream size : 403 MiB (2%)
Title : Original 5.1
Language : English
Service kind : Complete Main
Default : No
Forced : No

Audio #3
ID : 4
Format : TrueHD
Format profile : TrueHD+Atmos / TrueHD
Codec ID : A_TRUEHD
Duration : 2 h 5 min
Bit rate mode : Variable
Bit rate : 4 443 kb/s
Maximum bit rate : 7 878 kb/s
Channel(s) : Object Based / 8 channels
Channel positions : Object Based / Front: L C R, Side: L R, Back: L R, LFE
Sampling rate : / 48.0 kHz
Frame rate : 1 200.000 FPS (40 SPF)
Compression mode : Lossless
Stream size : 3.90 GiB (15%)
Title : Original Dolby TrueHD Audio 7.1
Language : English
Default : No
Forced : No

Text #1
ID : 5
Format : UTF-8
Codec ID : S_TEXT/UTF8
Codec ID/Info : UTF-8 Plain Text
Duration : 1 h 40 min
Bit rate : 0 b/s
Count of elements : 16
Stream size : 607 Bytes (0%)
Title : Ukr Forced
Language : Ukrainian
Default : No
Forced : No

Text #2
ID : 6
Format : UTF-8
Codec ID : S_TEXT/UTF8
Codec ID/Info : UTF-8 Plain Text
Duration : 1 h 56 min
Bit rate : 80 b/s
Count of elements : 1357
Stream size : 69.4 KiB (0%)
Title : Ukr Full
Language : Ukrainian
Default : Yes
Forced : No

Text #3
ID : 7
Format : UTF-8
Codec ID : S_TEXT/UTF8
Codec ID/Info : UTF-8 Plain Text
Duration : 1 h 56 min
Bit rate : 48 b/s
Count of elements : 1424
Stream size : 41.2 KiB (0%)
Title : Eng Full
Language : English
Default : No
Forced : No

Text #4
ID : 8
Format : UTF-8
Codec ID : S_TEXT/UTF8
Codec ID/Info : UTF-8 Plain Text
Duration : 1 h 58 min
Bit rate : 52 b/s
Count of elements : 1606
Stream size : 45.5 KiB (0%)
Title : Eng Full SDH
Language : English
Default : No
Forced : No

Text #5
ID : 9
Format : UTF-8
Codec ID : S_TEXT/UTF8
Codec ID/Info : UTF-8 Plain Text
Duration : 1 h 59 min
Bit rate : 63 b/s
Count of elements : 1608
Stream size : 55.6 KiB (0%)
Title : Eng Full SDH-Colored
Language : English
Default : No
Forced : No

Menu
00:00:00.000 : en:00:00:00.000
00:07:40.335 : en:00:07:40.335
00:14:20.735 : en:00:14:20.735
00:20:31.564 : en:00:20:31.564
00:27:48.417 : en:00:27:48.417
00:34:54.801 : en:00:34:54.801
00:41:02.627 : en:00:41:02.627
00:46:28.786 : en:00:46:28.786
00:53:05.516 : en:00:53:05.516
01:01:00.240 : en:01:01:00.240
01:08:22.557 : en:01:08:22.557
01:14:43.813 : en:01:14:43.813
01:21:31.261 : en:01:21:31.261
01:31:01.706 : en:01:31:01.706
01:38:42.750 : en:01:38:42.750
01:45:41.085 : en:01:45:41.085
01:52:48.971 : en:01:52:48.971
01:58:00.115 : en:01:58:00.115
Скріншоти
Джерело: &
Особиста оцінка: 10 - без зайвих вагань рекомендую всім!
Подяка п. Vasua95 за українську доріжку, п. ivan vyrvyvuho за субтитри, п.drobik81 за постери українською.


Золотий реліз (завантажене не впливає на рейтинг)
 Трекер:    Зареєстрований   

Завантажити / скачати фільм українською



відео для новачків



 Зареєстрований:   2019-05-09 01:10
 Розмір:   26.16 GB 
 Оцінка фільму:   8.8/10 (Голосів: 4)
   
Ваш часовий пояс: GMT + 2 Години

Нова тема   Відповісти