Щасливий день смерті 2 / Happy Death Day 2U (2019) 1080p H.265 Ukr/Eng | Sub Eng

Нові коментарі

Нова тема   Відповісти
Автор Повідомлення
Anonymous 







2019-05-08 21:18  
Щасливий день смерті 2 / Happy Death Day 2U (2019) 1080p H.265 Ukr/Eng | Sub Eng

Щасливий день смерті 2 / Happy Death Day 2U (2019) 1080p H.265 Ukr/Eng | Sub Eng


Жанр: детектив, трилер, жахи
Країна: США
Кінокомпанія: Universal Pictures, Blumhouse Productions
Режисер: Крістофер Лендон
Актори: Джессіка Рот, Ізраель Бруссар, Рубі Модін, Сурадж Шарма, Рейчел Меттьюз, Стів Зісіс, Чарльз Ейткен, Фі Ву, Лаура Кліфтон, Тені Інтріаго

Сюжет:
Одного разу Трі вже мала досить дивний подарунок на день народження – вона його проживала знову і знову, а закінчувалося все тим, що її вбивав маніяк у масці немовляти. І так би було вічно, поки дівчина не знайшла свого вбивцю та сама позбавила його життя. Пройшов цілий рік із того часу, її повністю влаштовує нове життя. Тільки ось на черговий день народження стара історія повторилася. Зараз разом із Трі дежавю проживають і її друзі. Якщо дівчина вмирає та починає день заново, то й з ними трапляється те саме. І цього разу маніяк вбиває і їх. Коли Трі переродиться та проживе цей проклятий день, дуже важливо, щоб її друзі також залишилися живі...

Тривалість: 01:39:55
Якість:
Відео:
кодек: H.265 (HEVC)
розмір кадру: 1920 x 800
бітрейт: 6 841 кб/с
бітова глибина: 10 біт
Увага! Перед завантаженням переконайтесь, що ваш пристрій відтворення (та/або ПЗ) підтримує H.265 (HEVC)

Аудіо # 1:
мова: українська
переклад: професійний дубльований
кодек: AC-3 2.0 (стерео)
бітрейт: 192 кб/с

Аудіо # 2:
мова: англійська
переклад: оригінал
кодек: 5.1
бітрейт: 1510 кб/с

Субтитри # 1:
мова: англійська (Full),
тип: програмні (м'які)
формат: *.srt

Субтитри # 2:
мова: англійська (SDH),
тип: програмні (м'які)
формат: *.srt


Info
Код:
General
Unique ID                                : 93150810227239614853813314899487913093 (0x46143187A59AE6514870F67DC5767485)
Complete name                            : F:\Video\Happy Death Day 2U (2019) 1080p H.265 [UKR_ENG] [Hurtom].
Format                                   :
Format version                           : Version 4 / Version 2
File size                                : 5.96 GiB
Duration                                 : 1 h 39 min
Overall bit rate                         : 8 545 kb/s
Movie name                               : Щасливий день смерті 2 / Happy Death Day 2U (2019)
Encoded date                             : UTC 2019-05-08 11:48:15
Writing application                      : v20.0.0 ('I Am The Sun') 64-bit
Writing library                          : libebml v1.3.5 + v1.4.8
Cover                                    : Yes
Attachments                              : cover.jpg

Video
ID                                       : 1
Format                                   : HEVC
Format/Info                              : High Efficiency Video Coding
Format profile                           : Main [email protected]@High
Codec ID                                 : V_MPEGH/ISO/HEVC
Duration                                 : 1 h 39 min
Bit rate                                 : 6 841 kb/s
Width                                    : 1 920 pixels
Height                                   : 800 pixels
Display aspect ratio                     : 2.40:1
Frame rate mode                          : Constant
Frame rate                               : 23.976 (24000/1001) FPS
Color space                              : YUV
Chroma subsampling                       : 4:2:0
Bit depth                                : 10 bits
Bits/(Pixel*Frame)                       : 0.186
Stream size                              : 4.78 GiB (80%)
Title                                    : Щасливий день смерті 2 / Happy Death Day 2U (2019)
Language                                 : English
Default                                  : Yes
Forced                                   : No
Color range                              : Limited
Color primaries                          : BT.709
Transfer characteristics                 : BT.709
Matrix coefficients                      : BT.709

Audio #1
ID                                       : 2
Format                                   : AC-3
Format/Info                              : Audio Coding 3
Codec ID                                 : A_AC3
Duration                                 : 1 h 39 min
Bit rate mode                            : Constant
Bit rate                                 : 192 kb/s
Channel(s)                               : 2 channels
Channel positions                        : Front: L R
Sampling rate                            : 48.0 kHz
Frame rate                               : 31.250 FPS (1536 SPF)
Bit depth                                : 16 bits
Compression mode                         : Lossy
Stream size                              : 137 MiB (2%)
Title                                    : ПД - 2.0 @ 192 kbps -[stereo]
Language                                 : Ukrainian
Service kind                             : Complete Main
Default                                  : Yes
Forced                                   : Yes

Audio #2
ID                                       : 3
Format                                   :
Format/Info                              : Digital Theater Systems
Codec ID                                 : A_DTS
Duration                                 : 1 h 39 min
Bit rate mode                            : Constant
Bit rate                                 : 1 509 kb/s
Channel(s)                               : 6 channels
Channel positions                        : Front: L C R, Side: L R, LFE
Sampling rate                            : 48.0 kHz
Frame rate                               : 93.750 FPS (512 SPF)
Bit depth                                : 24 bits
Compression mode                         : Lossy
Stream size                              : 1.05 GiB (18%)
Title                                    : Original - 5.1 @ 1536 kbps
Language                                 : English
Default                                  : No
Forced                                   : No

Text #1
ID                                       : 4
Format                                   : UTF-8
Codec ID                                 : S_TEXT/UTF8
Codec ID/Info                            : UTF-8 Plain Text
Duration                                 : 1 h 33 min
Bit rate                                 : 64 b/s
Count of elements                        : 1604
Stream size                              : 43.9 KiB (0%)
Title                                    : Full
Language                                 : English
Default                                  : No
Forced                                   : No

Text #2
ID                                       : 5
Format                                   : UTF-8
Codec ID                                 : S_TEXT/UTF8
Codec ID/Info                            : UTF-8 Plain Text
Duration                                 : 1 h 39 min
Bit rate                                 : 67 b/s
Count of elements                        : 1868
Stream size                              : 49.5 KiB (0%)
Title                                    : SDH
Language                                 : English
Default                                  : No
Forced                                   : No

Menu
00:00:00.000                             : en:Chapter 01
00:07:42.253                             : en:Chapter 02
00:16:01.085                             : en:Chapter 03
00:21:16.066                             : en:Chapter 04
00:24:21.460                             : en:Chapter 05
00:28:44.890                             : en:Chapter 06
00:32:34.661                             : en:Chapter 07
00:37:15.817                             : en:Chapter 08
00:42:02.812                             : en:Chapter 09
00:45:35.107                             : en:Chapter 10
00:48:37.665                             : en:Chapter 11
00:54:27.347                             : en:Chapter 12
01:00:36.341                             : en:Chapter 13
01:06:24.314                             : en:Chapter 14
01:13:19.520                             : en:Chapter 15
01:17:47.079                             : en:Chapter 16
01:21:31.762                             : en:Chapter 17
01:27:36.084                             : en:Chapter 18
01:33:02.994                             : en:Chapter 19
01:35:05.700                             : en:Chapter 20
Світлини





Джерело: &
Особиста оцінка: 0 - не дивився


 Трекер:    Зареєстрований   

Завантажити / скачати фільм українською



відео для новачків



 Зареєстрований:   2019-05-08 21:18
 Розмір:   5.96 GB 
 Оцінка фільму:   8/10 (Голосів: 3)
   
Ваш часовий пояс: GMT + 2 Години

Нова тема   Відповісти