Борг проти Макінроя / Borg McEnroe (2017) Remux 1080p Ukr/Eng | Sub Eng

Нові коментарі

Нова тема   Відповісти
Автор Повідомлення
Anonymous 







2019-05-08 11:31  
Борг проти Макінроя / Borg McEnroe (2017) Remux 1080p Ukr/Eng | Sub Eng

Борг проти Макінроя / Borg McEnroe (2017) Remux 1080p Ukr/Eng | Sub Eng


Жанр: біографічний, драма, спорт
Країна: Швеція, Фінляндія, Данія





Кінокомпанія: Nordisk Film, Film i Väst
Режисер: Янус Мец Педерсен
Актори: Шая ЛаБаф, Сверрір Ґуднасон, Стеллан Скарсґард, Тува Новотни, Бьорн Ґранат, Девід Бамбер, Роберт Еммс, Джейн Перрі, Лео Борг, Том Датноу та інші

Сюжет:
Вімблдонський турнір 1980 року. Один із найбільших фіналів у історії тенісу. Швед Бьорн Борг проти американця Джона Макінроя. Тільки один із них переможе і стане найкращим у цілому світі. А вони ж обидва вважають себе найкращими. Мільйони глядачів спостерігатимуть за цим напруженим поєдинком двох найкращих спортсменів свого часу. Але ж вони такі різні: один убиває своїм спокоєм, холоднокровністю й готовий як справжній робот дійти до своєї мети, а другий запальний, упертий і ніколи не тримає язик за зубами. Битва характерів, битва зірок, битва двох найкращих спортсменів, битва за звання найкращого.


Тривалість: 01:47:52
Якість: Remux 1080p
Відео:
кодек:
розмір кадру: 1920x1080
бітрейт: 27,5 мб/с

Аудіо # 1:
мова: українська
переклад: багатоголосий закадровий
кодек: 2.0
бітрейт: 192 кб/с

Аудіо # 2:
мова: англійська
переклад: оригінал
кодек: 5.1
бітрейт: 448 кб/с

Аудіо # 3:
мова: англійська
переклад: оригінал
кодек: -HD MA 5.1
бітрейт: 3627 кб/с

Субтитри:
мова: англійська
тип: програмні (м'які)
формат: *.srt
Info
Код:
General
Complete name                            : Borg McEnroe (2017) Remux 1080p [UKR_ENG] [ViDeO_Hurtom].
Format                                   :
Format version                           : Version 4
File size                                : 23.9 GiB
Duration                                 : 1 h 47 min
Overall bit rate mode                    : Variable
Overall bit rate                         : 31.8 Mb/s
Movie name                               : Borg McEnroe (2017) Remux 1080p [UKR_ENG] [ViDeO_Hurtom]
Encoded date                             : UTC 2019-05-08 08:36:34
Writing application                      : v30.1.0 ('Forever And More') 64-bit
Writing library                          : libebml v1.3.6 + v1.4.9

Video
ID                                       : 1
Format                                   : AVC
Format/Info                              : Advanced Video Codec
Format profile                           : [email protected]
Format settings                          : CABAC / 4 Ref Frames
Format settings, CABAC                   : Yes
Format settings, RefFrames               : 4 frames
Codec ID                                 : V_MPEG4/ISO/AVC
Duration                                 : 1 h 47 min
Bit rate mode                            : Constant
Bit rate                                 : 27.5 Mb/s
Nominal bit rate                         : 30.0 Mb/s
Width                                    : 1 920 pixels
Height                                   : 1 080 pixels
Display aspect ratio                     : 16:9
Frame rate mode                          : Constant
Frame rate                               : 24.000 FPS
Standard                                 : NTSC
Color space                              : YUV
Chroma subsampling                       : 4:2:0
Bit depth                                : 8 bits
Scan type                                : Progressive
Bits/(Pixel*Frame)                       : 0.553
Stream size                              : 20.7 GiB (87%)
Language                                 : English
Default                                  : Yes
Forced                                   : No
Color range                              : Limited
Color primaries                          : BT.709
Transfer characteristics                 : BT.709
Matrix coefficients                      : BT.709

Audio #1
ID                                       : 2
Format                                   : AC-3
Format/Info                              : Audio Coding 3
Commercial name                          : Dolby Digital
Codec ID                                 : A_AC3
Duration                                 : 1 h 47 min
Bit rate mode                            : Constant
Bit rate                                 : 192 kb/s
Channel(s)                               : 2 channels
Channel layout                           : L R
Sampling rate                            : 48.0 kHz
Frame rate                               : 31.250 FPS (1536 SPF)
Bit depth                                : 16 bits
Compression mode                         : Lossy
Stream size                              : 148 MiB (1%)
Title                                    : , 6 ch, 448 Кбит/с
Language                                 : Ukrainian
Service kind                             : Complete Main
Default                                  : Yes
Forced                                   : No

Audio #2
ID                                       : 3
Format                                   : AC-3
Format/Info                              : Audio Coding 3
Commercial name                          : Dolby Digital
Codec ID                                 : A_AC3
Duration                                 : 1 h 47 min
Bit rate mode                            : Constant
Bit rate                                 : 448 kb/s
Channel(s)                               : 6 channels
Channel layout                           : L R C LFE Ls Rs
Sampling rate                            : 48.0 kHz
Frame rate                               : 31.250 FPS (1536 SPF)
Bit depth                                : 16 bits
Compression mode                         : Lossy
Stream size                              : 346 MiB (1%)
Title                                    : , 6 ch, 448 Кбит/с
Language                                 : English
Service kind                             : Complete Main
Default                                  : No
Forced                                   : No

Audio #3
ID                                       : 4
Format                                   : XLL
Format/Info                              : Digital Theater Systems
Commercial name                          : -HD Master Audio
Codec ID                                 : A_DTS
Duration                                 : 1 h 47 min
Bit rate mode                            : Variable
Bit rate                                 : 3 627 kb/s
Channel(s)                               : 6 channels
Channel layout                           : C L R Ls Rs LFE
Sampling rate                            : 48.0 kHz
Frame rate                               : 93.750 FPS (512 SPF)
Bit depth                                : 24 bits
Compression mode                         : Lossless
Stream size                              : 2.73 GiB (11%)
Title                                    : -HD MA, 6 ch, 3627 Кбт/с
Language                                 : English
Default                                  : No
Forced                                   : No

Text
ID                                       : 5
Format                                   : UTF-8
Codec ID                                 : S_TEXT/UTF8
Codec ID/Info                            : UTF-8 Plain Text
Duration                                 : 1 h 38 min
Bit rate                                 : 47 b/s
Count of elements                        : 952
Stream size                              : 34.0 KiB (0%)
Language                                 : English
Default                                  : No
Forced                                   : No

Menu
00:00:00.000                             : en:Chapter 1
00:13:40.500                             : en:Chapter 2
00:27:28.750                             : en:Chapter 3
00:42:38.375                             : en:Chapter 4
00:55:30.458                             : en:Chapter 5
01:08:00.666                             : en:Chapter 6
01:23:12.375                             : en:Chapter 7
01:33:46.625                             : en:Chapter 8
Скріншоти





Джерело:
Особиста оцінка: 8 - мені сподобалося


Золотий реліз (завантажене не впливає на рейтинг)
 Трекер:    Зареєстрований   

Завантажити / скачати фільм українською



відео для новачків



 Зареєстрований:   2019-05-08 11:31
 Розмір:   23.94 GB 
 Оцінка фільму:   9/10 (Голосів: 6)
   
3d_reliz 
Частий відвідувач


З нами з: 28.09.14
Востаннє: 03.06.19
Повідомлень: 37

2019-05-27 18:02  
нудний фільм, не додивився....
Anonymous 







2019-07-04 20:41  
Цікавий фільм.
Ваш часовий пояс: GMT + 2 Години

Нова тема   Відповісти