Борг проти Макінроя / Borg McEnroe (2017) 1080р Ukr/Eng | Sub Eng

Нові коментарі

Нова тема   Відповісти
Останній раз роздавалося sash.kr (2020-09-30)
Автор Повідомлення
Anonymous 







2019-05-08 00:06  
Борг проти Макінроя / Borg McEnroe (2017) 1080p Ukr/Eng | Sub Eng

Борг проти Макінроя / Borg McEnroe (2017) 1080р Ukr/Eng | Sub Eng


Жанр: біографічний, драма, спорт
Країна: Швеція, Фінляндія, Данія





Кінокомпанія: Nordisk Film, Film i Väst
Режисер: Янус Мец Педерсен
Актори: Шая ЛаБаф, Сверрір Ґуднасон, Стеллан Скарсґард, Тува Новотни, Бьорн Ґранат, Девід Бамбер, Роберт Еммс, Джейн Перрі, Лео Борг, Том Датноу та інші

Сюжет:
Вімблдонський турнір 1980 року. Один із найбільших фіналів у історії тенісу. Швед Бьорн Борг проти американця Джона Макінроя. Тільки один із них переможе і стане найкращим у цілому світі. А вони ж обидва вважають себе найкращими. Мільйони глядачів спостерігатимуть за цим напруженим поєдинком двох найкращих спортсменів свого часу. Але ж вони такі різні: один убиває своїм спокоєм, холоднокровністю й готовий як справжній робот дійти до своєї мети, а другий запальний, упертий і ніколи не тримає язик за зубами. Битва характерів, битва зірок, битва двох найкращих спортсменів, битва за звання найкращого.


Тривалість: 01:47:52
Якість:
Відео:
кодек:
розмір кадру: 1920x804
бітрейт: 10000 кб/с

Аудіо # 1:
мова: українська
переклад: багатоголосий закадровий
кодек: 2.0
бітрейт: 192 кб/с

Аудіо # 2:
мова: англійська
переклад: оригінал
кодек: 5.1
бітрейт: 448 кб/с

Аудіо # 3:
мова: англійська
переклад: оригінал
кодек: 5.1
бітрейт: 1510 кб/с

Субтитри:
мова: англійська
тип: програмні (м'які)
формат: *.srt
Info
General
Complete name : Borg McEnroe (2017) 1080p [UKR_ENG] [ViDeO_Hurtom].
Format :
Format version : Version 4
File size : 9.14 GiB
Duration : 1 h 47 min
Overall bit rate : 12.1 Mb/s
Movie name : Borg McEnroe (2017) 1080p [UKR_ENG] [ViDeO_Hurtom]
Encoded date : UTC 2019-05-07 19:56:17
Writing application : v30.1.0 ('Forever And More') 64-bit
Writing library : libebml v1.3.6 + v1.4.9

Video
ID : 1
Format : AVC
Format/Info : Advanced Video Codec
Format profile : [email protected]
Format settings : CABAC / 5 Ref Frames
Format settings, CABAC : Yes
Format settings, RefFrames : 5 frames
Codec ID : V_MPEG4/ISO/AVC
Duration : 1 h 47 min
Bit rate : 10 000 kb/s
Width : 1 920 pixels
Height : 804 pixels
Display aspect ratio : 2.40:1
Frame rate mode : Constant
Frame rate : 24.000 FPS
Color space : YUV
Chroma subsampling : 4:2:0
Bit depth : 8 bits
Scan type : Progressive
Bits/(Pixel*Frame) : 0.270
Stream size : 7.52 GiB (82%)
Writing library : core 148 r2705 3f5ed56
Encoding settings : cabac=1 / ref=5 / deblock=1:-2:-2 / analyse=0x3:0x133 / me=umh / subme=10 / psy=1 / psy_rd=1.05:0.05 / mixed_ref=1 / me_range=32 / chroma_me=1 / trellis=2 / 8x8dct=1 / cqm=0 / deadzone=21,11 / fast_pskip=0 / chroma_qp_offset=-3 / threads=12 / lookahead_threads=2 / sliced_threads=0 / nr=0 / decimate=0 / interlaced=0 / bluray_compat=0 / constrained_intra=0 / bframes=8 / b_pyramid=2 / b_adapt=2 / b_bias=0 / direct=3 / weightb=1 / open_gop=0 / weightp=2 / keyint=240 / keyint_min=24 / scenecut=40 / intra_refresh=0 / rc_lookahead=50 / rc=2pass / mbtree=0 / bitrate=10000 / ratetol=1.0 / qcomp=0.60 / qpmin=0 / qpmax=69 / qpstep=4 / cplxblur=20.0 / qblur=0.5 / vbv_maxrate=50000 / vbv_bufsize=62500 / nal_hrd=none / filler=0 / ip_ratio=1.40 / pb_ratio=1.30 / aq=3:0.80
Language : English
Default : Yes
Forced : No

Audio #1
ID : 2
Format : AC-3
Format/Info : Audio Coding 3
Commercial name : Dolby Digital
Codec ID : A_AC3
Duration : 1 h 47 min
Bit rate mode : Constant
Bit rate : 192 kb/s
Channel(s) : 2 channels
Channel layout : L R
Sampling rate : 48.0 kHz
Frame rate : 31.250 FPS (1536 SPF)
Bit depth : 16 bits
Compression mode : Lossy
Stream size : 148 MiB (2%)
Title : , 2 ch, 192 Кбит/с
Language : Ukrainian
Service kind : Complete Main
Default : Yes
Forced : No

Audio #2
ID : 3
Format : AC-3
Format/Info : Audio Coding 3
Commercial name : Dolby Digital
Codec ID : A_AC3
Duration : 1 h 47 min
Bit rate mode : Constant
Bit rate : 448 kb/s
Channel(s) : 6 channels
Channel layout : L R C LFE Ls Rs
Sampling rate : 48.0 kHz
Frame rate : 31.250 FPS (1536 SPF)
Bit depth : 16 bits
Compression mode : Lossy
Stream size : 346 MiB (4%)
Title : , 6 ch, 448 Кбит/с
Language : English
Service kind : Complete Main
Default : No
Forced : No

Audio #3
ID : 4
Format :
Format/Info : Digital Theater Systems
Codec ID : A_DTS
Duration : 1 h 47 min
Bit rate mode : Constant
Bit rate : 1 509 kb/s
Channel(s) : 6 channels
Channel layout : C L R Ls Rs LFE
Sampling rate : 48.0 kHz
Frame rate : 93.750 FPS (512 SPF)
Bit depth : 24 bits
Compression mode : Lossy
Stream size : 1.14 GiB (12%)
Title : , 6 ch, 1510 Кбит/с
Language : English
Default : No
Forced : No

Text
ID : 5
Format : UTF-8
Codec ID : S_TEXT/UTF8
Codec ID/Info : UTF-8 Plain Text
Duration : 1 h 38 min
Bit rate : 47 b/s
Count of elements : 952
Stream size : 34.0 KiB (0%)
Language : English
Default : No
Forced : No

Menu
00:00:00.000 : en:Chapter 1
00:13:40.500 : en:Chapter 2
00:27:28.750 : en:Chapter 3
00:42:38.375 : en:Chapter 4
00:55:30.458 : en:Chapter 5
01:08:00.666 : en:Chapter 6
01:23:12.375 : en:Chapter 7
01:33:46.625 : en:Chapter 8
Скріншоти





Джерело:
Особиста оцінка: 8 - мені сподобалося


 Трекер:    Зареєстрований   

Завантажити / скачати фільм українською



відео для новачків



 Зареєстрований:   2019-05-08 00:06
 Розмір:   9.14 GB 
 Оцінка фільму:   8.7/10 (Голосів: 9)
   
AnkaPartizanka 
Поважний учасник


З нами з: 08.01.17
Востаннє: 29.09.20
Повідомлень: 173

2019-06-10 09:51  
цікава історія
Ваш часовий пояс: GMT + 2 Години

Нова тема   Відповісти