Парковка №2 / P2 (2007) Remux 1080p Ukr/Eng | Sub Eng

Нові коментарі

Нова тема   Відповісти
Автор Повідомлення
MakRA 
Поважний учасник


З нами з: 11.11.18
Востаннє: 19.06.19
Повідомлень: 230

2019-05-07 23:41  
Парковка №2 / P2 (2007) Remux 1080p Ukr/Eng | Sub Eng

Парковка №2 / P2 (2007) Remux 1080p Ukr/Eng | Sub Eng


Жанр: жахи, трилер, кримінальний
Країна: США



Кінокомпанія: P2 Productions, Summit Entertainment
Режисер: Френк Халфоун [Franck Khalfoun]
Актори: Рейчел Ніколс [Rachel Nichols], Вес Бентлі [Wes Bentley], Грейс Лінн Кунг [Grace Lynn Kung], Міранда Едвардс [Miranda Edwards], Пол Сун-Гюнг Лі [Paul Sun-Hyung Lee], Саймон Рейнольдс [Simon Reynolds], Стефані Мур [Stephanie Moore], Філіп Акін [Philip Akin].

Сюжет:
У переддень Різдва, молода жінка Анжела Бріджес виявляється замкненою на громадській парковці. Спочатку їй здається, що це невеликі проблеми з електропостачанням, викликані розпалом святкування, але пізніше вона розуміє, що стала жертвою маніяка-охоронця, який вирішив відсвяткувати Різдво на власний манер. Тепер їй належить нерівна сутичка з озброєним і добре підготовленим чоловіком, у якій перевага буде явно не на її боці. Та, як знати, може страх додасть їй мужності і сил протистояти зловмисникові.


Тривалість: 01:37:36
Якість: Remux 1080p
Відео:
кодек:
розмір кадру: 1920 х 1080
бітрейт: 25,6 Mб/с

Аудіо # 1:
мова: українська
переклад: багатоголосий закадровий
кодек: 2.0
бітрейт: 192 кб/с

Аудіо # 2:
мова: англійська
переклад: оригінал
кодек: 5.1
бітрейт: 1509 кб/с

Субтитри:
мова: англійська
тип: пререндерні
формат: *.pgs
Info
General
Unique ID : 142615727955612515196054273343316805258 (0x6B4ACA440FA3837A61392758959BC68A)
Complete name : E:\! Моя роздача\P2 (2007) Remux 1080p UkrEng Sub Eng [Hurtom].
Format :
Format version : Version 4 / Version 2
File size : 18.6 GiB
Duration : 1 h 37 min
Overall bit rate : 27.3 Mb/s
Movie name : Парковка №2 / P2 (2007) Remux 1080p Ukr/Eng | Sub Eng [Hurtom]
Encoded date : UTC 2019-05-06 18:11:17
Writing application : v25.0.0 ('Prog Noir') 64-bit
Writing library : libebml v1.3.6 + v1.4.9

Video
ID : 1
Format : VC-1
Format profile : [email protected]
Codec ID : V_MS/VFW/FOURCC / WVC1
Codec ID/Hint : Microsoft
Duration : 1 h 37 min
Bit rate : 25.6 Mb/s
Width : 1 920 pixels
Height : 1 080 pixels
Display aspect ratio : 16:9
Frame rate mode : Constant
Frame rate : 23.976 (24000/1001) FPS
Color space : YUV
Chroma subsampling : 4:2:0
Bit depth : 8 bits
Scan type : Progressive
Compression mode : Lossy
Bits/(Pixel*Frame) : 0.516
Stream size : 17.5 GiB (94%)
Title : P2 (2007) Remux 1080p Ukr/Eng | Sub Eng [Hurtom]
Language : Ukrainian
Default : Yes
Forced : Yes

Audio #1
ID : 2
Format : AC-3
Format/Info : Audio Coding 3
Format settings, Endianness : Big
Codec ID : A_AC3
Duration : 1 h 37 min
Bit rate mode : Constant
Bit rate : 192 kb/s
Channel(s) : 2 channels
Channel positions : Front: L R
Sampling rate : 48.0 kHz
Frame rate : 31.250 FPS (1536 SPF)
Bit depth : 16 bits
Compression mode : Lossy
Stream size : 134 MiB (1%)
Title : MVO [УКРАЇНА]
Language : Ukrainian
Service kind : Complete Main
Default : Yes
Forced : Yes

Audio #2
ID : 3
Format :
Format/Info : Digital Theater Systems
Mode : 16
Format settings, Endianness : Big
Codec ID : A_DTS
Duration : 1 h 37 min
Bit rate mode : Constant
Bit rate : 1 509 kb/s
Channel(s) : 6 channels
Channel positions : Front: L C R, Side: L R, LFE
Sampling rate : 48.0 kHz
Frame rate : 93.750 FPS (512 SPF)
Bit depth : 16 bits
Compression mode : Lossy
Delay relative to video : 42 ms
Stream size : 1.03 GiB (6%)
Title : English 5.1
Language : English
Default : No
Forced : No

Text
ID : 4
Format : PGS
Muxing mode : zlib
Codec ID : S_HDMV/PGS
Codec ID/Info : Picture based subtitle format used on BDs/HD-DVDs
Duration : 1 h 33 min
Bit rate : 19.8 kb/s
Count of elements : 1522
Stream size : 13.2 MiB (0%)
Title : Eng
Language : English
Default : No
Forced : No
Скріншоти
Джерело: &
Особиста оцінка: 10 - без зайвих вагань рекомендую всім!
Подяка п.bodia87 за звукову доріжку


Золотий реліз (завантажене не впливає на рейтинг)
 Трекер:    Зареєстрований   

Завантажити / скачати фільм українською



відео для новачків



 Зареєстрований:   2019-05-07 23:41
 Розмір:   18.64 GB 
 Оцінка фільму:   7.8/10 (Голосів: 6)
   
Інші релізи
   Парковка / P2 (2007) [MP4, 640x] apvAltisimo  1 / 0   626 MB   2015-10-19 14:47 
   Парковка №2 / P2 (2007) bodia87  4 / 0   1.32 GB   2013-07-23 11:30 
don pedro 
Попереджень: 1
Попереджень: 1 


З нами з: 29.06.11
Востаннє: 19.06.19
Повідомлень: 13833

2019-05-07 23:50  
Наскільки я зрозумів, найкраще у цьому фільмі - розкішні перса головної героїні.
Ваш часовий пояс: GMT + 2 Години

Нова тема   Відповісти