Чорнобиль (Сезон 1, серії 1-3) / Chernobyl (Season 1, series 1-3) (2019) 720p Ukr/Eng | Sub Eng

Нові коментарі

Нова тема   Відповісти
Автор Повідомлення
Anonymous 







2019-05-07 23:25  
AVI | AVC | 1080p
Чорнобиль (Сезон 1, серії 1-3) / Chernobyl (Season 1, series 1-3) (2019) 720p Ukr/Eng | Sub Eng

Оригінальний постер:



Жанр: історична драма
Країна: США, Велика Британія

Top Rated TV #1*

Кінокомпанія: HBO, Sky Television
Режисер: Йоган Ренк / Johan Renck
Актори: Джаред Гарріс / Jared Harris, Стеллан Скашгорд / Stellan Skarsgård, Емілі Вотсон / Emily Watson, Пол Ріттер / Paul Ritter, Джессі Баклі / Jessie Buckley, Едріан Роллінс / Adrian Rawlins, Кон О'Ніл / Con O'Neill та інші

Сюжет:
Британсько-американський історичний драматичний телевізійний міні-серіал від HBO. Події розгортаються після вибуху реактора на ЧАЕС у 1986 році. Головні герої спробують пояснити, чому трапилася катастрофа. Також у серіалі зображено евакуацію мешканців та хід рятувальної операції.
Український трейлер від НеЗупиняйПродакшн:

Тривалість: 1 серія: ~60 ÷ 65 хв. (цілком серій: 3 з 5)
Перелік серій, дата трансляції у США

1. 1:23:45, 06.05.19
2. Please Remain Calm, 13.05.19
3. Open Wide, O Earth, 20.05.19
4. The Happiness of All Mankind, 27.05.19
5. Vichnaya Pamyat, 03.06.19
Якість: 720p [Amazon]
Відео:
кодек:
розмір кадру: 1280x720
бітрейт: 3955 ÷ 4703 Кбіт/сек

Аудіо # 1:
мова: українська
переклад: професійний багатоголосий закадровий
кодек: 5.1
бітрейт: 640 кб/с

Перекладено та озвучено студією НеЗупиняйПродакшн


Аудіо # 2:
мова: англійська
переклад: оригінал
кодек: E- 5.1
бітрейт: 640 кб/с

Субтитри # 1-2:
мова: англійська (повні, SDH)
тип: програмні (м'які)
формат: *.srt
Info
Код:

Complete name               : S01E03.Chernobyl.2019.Ukr.Eng..720p.[Hurtom].
Format                      :
Format version              : Version 4
File size                   : 2.32 GiB
Duration                    : 1 h 3 min
Overall bit rate            : 5 231 kb/s
Movie name                  : S01E03 Чорнобиль / Chernobyl (2019) [Ukr,Eng] 720p [Hurtom]
Encoded date                : UTC 2019-05-21 19:39:45
Writing application         : v34.0.0 ('Sight and Seen') 64-bit
Writing library             : libebml v1.3.7 + v1.5.0
Cover                       : Yes
Attachments                 : cover.jpg

Video
ID                          : 1
Format                      : AVC
Format/Info                 : Advanced Video Codec
Format profile              : [email protected]
Format settings             : CABAC / 4 Ref Frames
Format settings, CABAC      : Yes
Format settings, Reference  : 4 frames
Codec ID                    : V_MPEG4/ISO/AVC
Duration                    : 1 h 3 min
Bit rate mode               : Constant
Bit rate                    : 3 955 kb/s
Nominal bit rate            : 6 000 kb/s
Width                       : 1 280 pixels
Height                      : 720 pixels
Display aspect ratio        : 16:9
Frame rate mode             : Constant
Frame rate                  : 23.976 (24000/1001) FPS
Color space                 : YUV
Chroma subsampling          : 4:2:0
Bit depth                   : 8 bits
Scan type                   : Progressive
Bits/(Pixel*Frame)          : 0.179
Stream size                 : 1.75 GiB (76%)
Title                       : Чорнобиль / Chernobyl.S01E03.Open.Wide.O.Earth.720p.AMZN..DDP5.1.-NTb
Language                    : English
Default                     : Yes
Forced                      : No
Color range                 : Limited
Color primaries             : BT.709
Transfer characteristics    : BT.709
Matrix coefficients         : BT.709

Audio #1
ID                          : 2
Format                      : AC-3
Format/Info                 : Audio Coding 3
Commercial name             : Dolby Digital
Codec ID                    : A_AC3
Duration                    : 1 h 2 min
Bit rate mode               : Constant
Bit rate                    : 640 kb/s
Channel(s)                  : 6 channels
Channel layout              : L R C LFE Ls Rs
Sampling rate               : 48.0 kHz
Frame rate                  : 31.250 FPS (1536 SPF)
Bit depth                   : 16 bits
Compression mode            : Lossy
Stream size                 : 288 MiB (12%)
Title                       : MVO [NeZupynyajProduction], 5.1 640 Kbps
Language                    : Ukrainian
Service kind                : Complete Main
Default                     : Yes
Forced                      : No

Audio #2
ID                          : 3
Format                      : E-AC-3
Format/Info                 : Enhanced AC-3
Commercial name             : Dolby Digital Plus
Codec ID                    : A_EAC3
Duration                    : 1 h 3 min
Bit rate mode               : Constant
Bit rate                    : 640 kb/s
Channel(s)                  : 6 channels
Channel layout              : L R C LFE Ls Rs
Sampling rate               : 48.0 kHz
Frame rate                  : 31.250 FPS (1536 SPF)
Compression mode            : Lossy
Delay relative to video     : 28 ms
Stream size                 : 291 MiB (12%)
Title                       : Original, E- 5.1 640 Kbps
Language                    : English
Service kind                : Complete Main
Default                     : No
Forced                      : No

Text #1
ID                          : 4
Format                      : UTF-8
Codec ID                    : S_TEXT/UTF8
Codec ID/Info               : UTF-8 Plain Text
Duration                    : 1 h 3 min
Bit rate                    : 45 b/s
Count of elements           : 706
Stream size                 : 21.1 KiB (0%)
Title                       : Eng full
Language                    : English
Default                     : No
Forced                      : No

Text #2
ID                          : 5
Format                      : UTF-8
Codec ID                    : S_TEXT/UTF8
Codec ID/Info               : UTF-8 Plain Text
Duration                    : 1 h 3 min
Bit rate                    : 45 b/s
Count of elements           : 738
Stream size                 : 21.3 KiB (0%)
Title                       : Eng SDH
Language                    : English
Default                     : No
Forced                      : No


Джерело: &
* Міні-серіал "Чорнобиль" вийшов на перше місце в рейтингу IMDB Top Rated TV Shows, посунувши на друге місце док.серіал про природу від Девіда Аттенборо "Планета Земля ІІ", яке той займав кілька років.


Авторський реліз (завантажувати можна без реєстрації)
 Трекер:    Зареєстрований   

Завантажити / скачати серіал українською



відео для новачків



 Зареєстрований:   2019-05-21 23:08
 Розмір:   7.51 GB 
 Оцінка серіалу:   9.8/10 (Голосів: 89)
   
Жук717 
Новенький


З нами з: 05.06.12
Востаннє: 23.05.19
Повідомлень: 18

2019-05-08 00:20  
Ух, вельми страшне кіно вийшло, особливо коли усвідомлюєш, що це насправді було.
qarty1 
Поважний учасник


З нами з: 01.11.09
Востаннє: 23.05.19
Повідомлень: 207

2019-05-08 09:18  
рейтинг першої серії вражає, дочекаюсь всіх п'ять серій і залпом гляну.
Estranded 
VIP


З нами з: 09.02.14
Востаннє: 23.05.19
Повідомлень: 1348

2019-05-08 09:46  
Сьогодні буде?
Anonymous 







2019-05-08 09:47  
Estranded,
НеЗупиняйПродакшн 2019-05-07 22:10 написано:
Вже на зведенні, скоро буде.

dj-liam 
Свій


З нами з: 30.11.12
Востаннє: 22.05.19
Повідомлень: 97

2019-05-08 09:48  
Коли приблизно очікувати на першу серію?
updated: дякую, вже бачу. Чекатиму з нетерпінням

Anonymous 







2019-05-08 12:22  
Перша серія на роздачі.
minol 
Новенький


З нами з: 15.02.12
Востаннє: 19.05.19
Повідомлень: 2

2019-05-08 16:50  
Як швидко обіцяють решту?
Anonymous 







2019-05-08 16:54  
minol, трансляція в штатах - по серії щопонеділка, думаю через добу-півтори буде українською.
Estranded 
VIP


З нами з: 09.02.14
Востаннє: 23.05.19
Повідомлень: 1348

2019-05-09 11:28  
Перша серія дуже потужна - оцінка заслужена.
termi12 
Новенький


З нами з: 23.05.16
Востаннє: 22.05.19
Повідомлень: 1

2019-05-10 21:09  
Бомбезний серіал! З нетерпінням чекаю наступну
мені було 10 років коли це сталося
Мешкав у Києві

vas361 
Свій


З нами з: 07.10.16
Востаннє: 22.05.19
Повідомлень: 54

2019-05-12 17:55  
таке собі..
і чомусь американці назвали chErnobyl, на руSSький манер.

пам'ятаю колись, ще в школі читав в якомусь науковому журналі похвилинно та мабуть і посекундно як все відбувалось, хронологія.. ото було цікаво !! особливо вперше. Sad (1)

mur4v3y 
Частий відвідувач


З нами з: 31.10.15
Востаннє: 23.05.19
Повідомлень: 49

2019-05-14 16:40  
vas361
гадаю, під такою транслітерацією місце і подія просто відомі всьому світові - тут навряд щось принципове.

Стосовно хронології - існує відеоцикл на каналі Ютьюб ЧАЕС, створений силами і за участі співробітників станції. Там описуються події, що передували вибуху, під час аварії та після неї, включно з евакуацією. Назва - "Семь дней после аварии". Мені було цікаво послухати. Фільм, як і більшість матеріалів на каналі, знято і викладено російською мовою, на жаль, та й назва каналу - Chernobyl NPP.

Anonymous 







2019-05-15 10:26  
+2а серія
також замінено звук в 1й серії
.

tbuctep 
Новенький


З нами з: 04.02.16
Востаннє: 22.05.19
Повідомлень: 1

2019-05-15 15:28  
Файл не працює
Anonymous 







2019-05-15 15:31  
tbuctep написано:
Файл не працює

я перевіряв, обидва файли "працюють".

greatvova 
Новенький


З нами з: 12.10.16
Востаннє: 21.05.19
Повідомлень: 3

2019-05-15 19:45  
Перша серія дуже сподобалася. Чекаю з нетерпінням решту сезону Happy
Tripleh2 
Новенький


З нами з: 09.12.17
Востаннє: 22.05.19
Повідомлень: 10

2019-05-18 17:53  
Нормальний серіал, точніше це хітяра
misha87 
Новенький


З нами з: 18.05.19
Востаннє: 22.05.19
Повідомлень: 1

2019-05-19 09:57  
Жук717
це 2 серія???

Olexandr Bondarenko 
Новенький


З нами з: 08.11.11
Востаннє: 23.05.19
Повідомлень: 5

2019-05-19 22:13  
Сподобався !
Anonymous 







2019-05-21 23:10  
+3а серія
також замінено звук в 2й серії
.

Naziik 
Новенький


З нами з: 06.01.11
Востаннє: 23.05.19
Повідомлень: 8

2019-05-22 18:58  
немає дубляжу . VLC та інші , доріжка вибрана , тільки фон іде
Anonymous 







2019-05-22 19:57  
Naziik, в тебе проблема з кодеком або з драйвером чи динаміками.
Бандерівець_з_криївки 
Новенький


З нами з: 24.08.14
Востаннє: 22.05.19
Повідомлень: 9

2019-05-22 21:48  
нічого так, але помітно місцями що у литві знімали
Anonymous 







2019-05-23 18:42  
Міні-серіал "Чорнобиль" вийшов на перше місце в рейтингу IMDB Top Rated TV Shows, посунувши на друге місце док.серіал про природу від Девіда Аттенборо "Планета Земля ІІ", яке той займав кілька років.
Anоnymous 
VIP


З нами з: 25.08.18
Востаннє: 23.05.19
Повідомлень: 793

2019-05-23 18:56  
Anonymous написано:
Міні-серіал "Чорнобиль" вийшов на перше місце в рейтингу IMDB Top Rated TV Shows, посунувши на друге місце док.серіал про природу від Девіда Аттенборо "Планета Земля ІІ", яке той займав кілька років.

І скільки у нього там голосів? 32 тисячі? це не показник

Ваш часовий пояс: GMT + 2 Години

Нова тема   Відповісти