Нажахані (Заціпенілі від страху, Terrified) / Aterrados (2017) 720p Spa | Sub Ukr/Eng

Нові коментарі

Нова тема   Відповісти
Автор Повідомлення
Anonymous 







2019-05-06 19:06  
Нажахані / Terrified / Aterrados (2017) 720p Spa | Sub Ukr/Eng

Нажахані (Заціпенілі від страху, Terrified) / Aterrados (2017) 720p Spa | Sub Ukr/Eng
Альтернативні постери:

Нажахані (Заціпенілі від страху, Terrified) / Aterrados (2017) 720p Spa | Sub Ukr/Eng

Нажахані (Заціпенілі від страху, Terrified) / Aterrados (2017) 720p Spa | Sub Ukr/Eng

Нажахані (Заціпенілі від страху, Terrified) / Aterrados (2017) 720p Spa | Sub Ukr/Eng


Жанр: жахи
Країна: Аргентина



Кінокомпанія: Instituto Nacional de Cine y Artes Audiovisuales (INCAA), Machaco Films
Режисер: Деміан Рунья / Demián Rugna
Актори: Максіміліано Гіоне, Норберто Гонсало, Ельвіра Онетто, Агустін Ріттано, Деміан Саломон, Джордж Л. Льюіс, Джульєта Валліна, Арьєль Чаваррія, Уго Албріч, Наталія Сеньоралес та інші

Сюжет:
Моторошні події сколихнули передмістя Буенос-Айреса. Невідома і невидима сила по-звірячому вбиває жінку на очах її чоловіка. Вночі біля ліжка його сусіда з'являється жахливий монстр. А хлопчик з будинку навпроти, що загинув під колесами авто, повертається з цвинтаря і сідає за кухонний стіл. Шукати причину незрозумілих кошмарів беруться три фахівці з паранормальних явищ та детектив з відділу розслідування вбивств.


Тривалість: 01:27:46
Якість: 720p

Відео:
кодек:
розмір кадру: 1280 х 536
бітрейт: 1796 кб/с

Аудіо:
мова: іспанська
переклад: оригінал
кодек: E- 2.0
бітрейт: 128 кб/с

Субтитри # 1:
мова: українська
тип: програмні (м'які)
формат: *.srt
переклад: SubAutumn
коригування: igor911

Субтитри # 2:
мова: англійська
тип: програмні (м'які)
формат: *.srt
Info
Код:

Complete name               : Aterrados (Terrified) (2017) [Spa sub.Ukr,Eng] 720p [Hurtom].
Format                      :
Format version              : Version 4
File size                   : 1.18 GiB
Duration                    : 1 h 27 min
Overall bit rate            : 1 927 kb/s
Movie name                  : Нажахані / Terrified / Aterrados (2017) [Spa sub.Ukr,Eng] 720p [Hurtom]
Encoded date                : UTC 2019-05-12 09:24:17
Writing application         : v33.1.0 ('Primrose') 64-bit
Writing library             : libebml v1.3.7 + v1.5.0
Cover                       : Yes
Attachments                 : cover.jpg

Video
ID                          : 1
Format                      : AVC
Format/Info                 : Advanced Video Codec
Format profile              : [email protected]
Format settings             : CABAC / 5 Ref Frames
Format settings, CABAC      : Yes
Format settings, Reference  : 5 frames
Codec ID                    : V_MPEG4/ISO/AVC
Duration                    : 1 h 27 min
Bit rate                    : 1 796 kb/s
Width                       : 1 280 pixels
Height                      : 536 pixels
Display aspect ratio        : 2.40:1
Frame rate mode             : Constant
Frame rate                  : 23.976 (24000/1001) FPS
Color space                 : YUV
Chroma subsampling          : 4:2:0
Bit depth                   : 8 bits
Scan type                   : Progressive
Bits/(Pixel*Frame)          : 0.109
Stream size                 : 1.10 GiB (93%)
Title                       : Нажахані / Terrified / Aterrados (2017) 720p..-iNTENSO
Writing library             : core 155 r2901 7d0ff22
Encoding settings           : cabac=1 / ref=5 / deblock=1:-3:-3 / analyse=0x3:0x133 / me=umh / subme=10 / psy=1 / psy_rd=1.05:0.15 / mixed_ref=1 / me_range=16 / chroma_me=1 / trellis=2 / 8x8dct=1 / cqm=0 / deadzone=21,11 / fast_pskip=0 / chroma_qp_offset=-3 / threads=17 / lookahead_threads=1 / sliced_threads=0 / nr=0 / decimate=1 / interlaced=0 / bluray_compat=0 / constrained_intra=0 / bframes=3 / b_pyramid=2 / b_adapt=2 / b_bias=0 / direct=3 / weightb=1 / open_gop=0 / weightp=2 / keyint=250 / keyint_min=24 / scenecut=40 / intra_refresh=0 / rc_lookahead=50 / rc=crf / mbtree=1 / crf=18.0 / qcomp=0.60 / qpmin=0 / qpmax=69 / qpstep=4 / ip_ratio=1.40 / aq=3:0.65
Language                    : English
Default                     : Yes
Forced                      : No

Audio
ID                          : 2
Format                      : E-AC-3
Format/Info                 : Enhanced AC-3
Commercial name             : Dolby Digital Plus
Codec ID                    : A_EAC3
Duration                    : 1 h 27 min
Bit rate mode               : Constant
Bit rate                    : 128 kb/s
Channel(s)                  : 2 channels
Channel layout              : L R
Sampling rate               : 48.0 kHz
Frame rate                  : 31.250 FPS (1536 SPF)
Compression mode            : Lossy
Stream size                 : 80.4 MiB (7%)
Title                       : Original, E- 2.0 128 Kbps
Language                    : Spanish
Service kind                : Complete Main
Default                     : Yes
Forced                      : No

Text #1
ID                          : 3
Format                      : UTF-8
Codec ID                    : S_TEXT/UTF8
Codec ID/Info               : UTF-8 Plain Text
Duration                    : 1 h 25 min
Bit rate                    : 59 b/s
Count of elements           : 742
Stream size                 : 37.6 KiB (0%)
Title                       : Ukr full [SubAutumn]
Language                    : Ukrainian
Default                     : Yes
Forced                      : No

Text #2
ID                          : 4
Format                      : UTF-8
Codec ID                    : S_TEXT/UTF8
Codec ID/Info               : UTF-8 Plain Text
Duration                    : 1 h 25 min
Bit rate                    : 33 b/s
Count of elements           : 743
Stream size                 : 21.2 KiB (0%)
Title                       : Eng full
Language                    : English
Default                     : No
Forced                      : No


Джерело: &


Золотий реліз (завантажене не впливає на рейтинг)
 Трекер:    Зареєстрований   

Завантажити / скачати фільм українською



відео для новачків



 Зареєстрований:   2019-05-12 11:35
 Розмір:   1.18 GB 
 Оцінка фільму:   9.6/10 (Голосів: 8)
   
Leben 
VIP


З нами з: 20.07.09
Востаннє: 28.11.20
Повідомлень: 454

2019-05-06 22:12  
Не "пригород" а "околиці".
Будь ласка.

vishnu 
Свій


З нами з: 06.10.15
Востаннє: 29.11.20
Повідомлень: 121

2019-05-07 17:07  
Не "пригород", а "передмістя".
Уникайте кацапізмів.

bot 
робот


З нами з: 30.09.07
Востаннє: 26.05.05
Повідомлень: 26411

2019-05-12 11:35  
Тему перенесено з Анонси релізів до форуму Фільми


igor911

tpolit 
Попереджень: 1
Попереджень: 1 


З нами з: 10.01.15
Востаннє: 30.11.20
Повідомлень: 638

2019-05-14 12:00  
Цікаве кіно, в ньому навіть є якась ідея, яка ніби пояснює, що відбувається. Але в ньому замало кадрів з тими монстрами - мабуть не вистачило фінансування на спецефекти. 7/10.
Custo 12 
Свій


З нами з: 08.11.16
Востаннє: 29.11.20
Повідомлень: 148

2019-05-14 15:06  
Класна страшилка. Має атмосферу старих жахів.
nosferatumes 
Свій


З нами з: 12.10.16
Востаннє: 27.11.20
Повідомлень: 85

2019-05-20 21:25  
Чудовий жахастик, неочікував такого від Аргентини. Було цікаво глянути, є моторошні моменти. Акторська гра та діалоги сподобались Happy 7/10
сер147 
Свій


З нами з: 11.03.12
Востаннє: 29.11.20
Повідомлень: 73

2019-06-17 13:40  
Дуже непогано, але наприкінці виникає відчуття що це вже десь було, 7/10
Billy_Club 
Новенький


З нами з: 20.10.15
Востаннє: 26.11.20
Повідомлень: 13

2019-08-25 23:35  
Спочатку думав що чергова малобюджетка. В цілому десь так воно і є, але знято непогано як для фільму жахів. Атмосферне кінце. На багато страшніше ніж те лайно що зара голівут штампує. Такого зараз не знімають майже. Хіба що японці і то не часто. Я б навіть 10 з 10ти поставив би. Воно звісно не шедевр, але скучив я за олдскульними та атмосферними жахами. Додав у колекцію.
Ваш часовий пояс: GMT + 2 Години

Нова тема   Відповісти