Каґуя-сама: Кохання як війна / Kaguya-sama wa Kokurasetai / Kaguya Wants to be Confessed To: The Geniuses' War of Love and Brains (12 з 12) (2019) 720p Jap / sub Ukr/Eng

Нові коментарі

Нова тема   Відповісти
Автор Повідомлення
bodja2 
Частий відвідувач


З нами з: 19.05.13
Востаннє: 07.04.20
Повідомлень: 29

2019-05-06 15:55  
Каґуя-сама: Кохання як війна / Kaguya-sama wa Kokurasetai / Kaguya Wants to be Confessed To: The Geniuses' War of Love and Brains (12 з 12) (2019) 720p Jap / sub Ukr/Eng

Каґуя-сама: Кохання як війна / Kaguya-sama wa Kokurasetai / Kaguya Wants to be Confessed To: The Geniuses' War of Love and Brains (12 з 12) (2019) 720p Jap / sub Ukr/Eng

Країна: Японія
Рік: 2019
Студія: A-1 Pictures
Режисер: Шінічі Омата
Жанри: Комедія, Психологія, Романтика, Школа, Сейнен
Тип:ТБ-серіал
7,9/10 (565 голосів)

7.38 (629 голосів)
MyAnimeList
8.53 (127180 голосів)
Джерело: ,

Опис:
Шіномія Каґуя та Шіроґане Міюкі - члени Учнівської ради елітної академії Шучіін, генії з геніїв.
Після часу проведеного разом часу, у них зародилися почуття один до одного. Але, нажаль, їхня гордість не дозволить зізнатися одне одному про свої почуття.
Кохання - це війна, це безжальна битва, метою якої, є змусити супротивника зізнатися!

Відео:
Тривалість: 1 серія: ~ 25:00 (цілком серій: 12)
Якість: 720p
Кодек:
Розмір кадру:1280х720
Бітрейт: 2196 Кбіт/с

Аудіо:
мова: японська
Переклад: оригінал
Кодек:
канали: 2 (стерео)
бітрейт: 128 Кбіт/сек

Субтитри: (авторський переклад)
мова: українська
Тип: вбудовані (м'які)
Формат: .
Переклад:K0wbassa

Субтитри:
мова: англійська
Тип: вбудовані (м'які)
Формат: .
Список серій

1.
1.1. Я змушу тебе запросити мене в кіно
1.2. Каґуя хоче, щоб її зупинити
1.3. Каґуя хоче цього
2.
2.1. Каґуя хоче обмінятися
2.2. Фуджівара хоче кудись поїхати
3.
3.1. Шіроґане Міюкі не робив цього
3.2. Каґуя хоче з'ясувати
3.3. Каґуя хоче прогулятися
4.
4.1. Каґуя хоче уваги
4.2. Учнівська рада хоче почути це
4.3. Каґуя хоче, щоб він написав
4.4. Шіроґане Міюкі хоче поговорити
5.
5.1. Каґуя хоче досягти успіху
5.2. Міюкі Шіроґане хоче показати себе
5.3. Каґуя хоче заховатись
6.
6.1. Ішіґамі Ю хоче вижити
6.2. Фуджівара Чіка хоче переконатися
6.3. Каґуя хоче, щоб її замітили
7.
7.1. Шіроґане Міюкі хоче працювати
7.2. Каґуя хоче, щоб він приєднався
7.3. Каґуя хоче все контролювати
8.
8.1. Каґуя хоче, щоб вона сказала
8.2. Шіроґане Міюкі не мможе програти
8.3. Ішіґамі Ю закриває очі
9.
9.1. Каґуя хоче зробити подарунок
9.2. Фуджівара Чіка хоче піти
9.3. Про Шіномію Каґую
10.
10.1. Каґуя не пробачить
10.2. Каґуя хоче вибачитись
10.3. Шіроґане Міюкі Хоче кудись піти
11.
11.1. Хаясака Ай хоче помитися
11.2. Фуджівара Чіка дуже хоче це з'їсти
11.3. Шіроґане Міюкі хоче побачити тебе
11.4. Я не чую феєрверків, частина перша
12.
12.1. Я не чую феєрверків, частина друга
12.2. Каґуя не хоче уникати його
Скріншоти




Info

General
Unique ID : 154095448100938328720361577781345080530 (0x73EDB42ADE9773AF8078DCA01FFF54D2)
Complete name : D:\Завантаження\[K0wbassa] Kaguya-sama wa Kokurasetai 720p sub Ukr\[K0wbassa] Kaguya-sama wa Kokurasetai - 01 [720p].
Format :
Format version : Version 4 / Version 2
File size : 417 MiB
Duration : 25 min 4 s
Overall bit rate : 2 322 kb/s
Encoded date : UTC 2019-05-06 11:33:56
Writing application : v27.0.0 ('Metropolis') 64-bit
Writing library : libebml v1.3.6 + v1.4.9
Attachments : OpenSans-Semibold.ttf

Video
ID : 1
Format : AVC
Format/Info : Advanced Video Codec
Format profile : [email protected]
Format settings, CABAC : Yes
Format settings, ReFrames : 6 frames
Codec ID : V_MPEG4/ISO/AVC
Duration : 25 min 0 s
Bit rate : 2 196 kb/s
Width : 1 280 pixels
Height : 720 pixels
Display aspect ratio : 16:9
Frame rate mode : Constant
Frame rate : 23.976 (24000/1001) FPS
Color space : YUV
Chroma subsampling : 4:2:0
Bit depth : 8 bits
Scan type : Progressive
Bits/(Pixel*Frame) : 0.099
Stream size : 393 MiB (94%)
Writing library : core 142
Encoding settings : cabac=1 / ref=6 / deblock=1:1:1 / analyse=0x3:0x113 / me=umh / subme=8 / psy=1 / psy_rd=0.40:0.00 / mixed_ref=1 / me_range=16 / chroma_me=1 / trellis=1 / 8x8dct=1 / cqm=0 / deadzone=21,11 / fast_pskip=1 / chroma_qp_offset=-2 / threads=10 / lookahead_threads=1 / sliced_threads=0 / nr=0 / decimate=1 / interlaced=0 / bluray_compat=0 / constrained_intra=0 / bframes=3 / b_pyramid=2 / b_adapt=2 / b_bias=0 / direct=3 / weightb=1 / open_gop=0 / weightp=2 / keyint=48 / keyint_min=25 / scenecut=0 / intra_refresh=0 / rc_lookahead=48 / rc=crf / mbtree=1 / crf=15.0 / qcomp=0.60 / qpmin=0 / qpmax=69 / qpstep=4 / vbv_maxrate=4000 / vbv_bufsize=6000 / crf_max=0.0 / nal_hrd=none / filler=0 / ip_ratio=1.40 / aq=1:0.60
Default : Yes
Forced : No

Audio
ID : 2
Format :
Format/Info : Advanced Audio Codec
Format profile : LC
Codec ID : A_AAC
Duration : 25 min 0 s
Bit rate : 128 kb/s
Channel(s) : 2 channels
Channel positions : Front: L R
Sampling rate : 44.1 kHz
Frame rate : 43.066 FPS (1024 spf)
Compression mode : Lossy
Delay relative to video : -83 ms
Stream size : 22.9 MiB (5%)
Language : Japanese
Default : Yes
Forced : No

Text #1
ID : 3
Format :
Codec ID : S_TEXT/
Codec ID/Info : Advanced Sub Station Alpha
Duration : 25 min 4 s
Bit rate : 1 571 b/s
Count of elements : 1239
Compression mode : Lossless
Stream size : 289 KiB (0%)
Title : UKR SUB
Language : Ukrainian
Default : Yes
Forced : Yes

Text #2
ID : 4
Format :
Codec ID : S_TEXT/
Codec ID/Info : Advanced Sub Station Alpha
Duration : 24 min 58 s
Bit rate : 199 b/s
Count of elements : 483
Compression mode : Lossless
Stream size : 36.5 KiB (0%)
Language : English
Default : No
Forced : No


Золотий реліз (завантажене не впливає на рейтинг)
 Трекер:    Зареєстрований   

Завантажити / скачати аніме українською



відео для новачків



 Зареєстрований:   2019-05-06 15:55
 Розмір:   4.3 GB 
 Оцінка аніме:   9.8/10 (Голосів: 4)
   
11FrYkT 
Модератор відео


З нами з: 20.02.11
Востаннє: 09.04.20
Повідомлень: 6710

2019-05-07 10:28  
bodja2 написано:
|

замінити в зголовку на /

Додати посилання ІМДБ, перелік серій і їх назви

bodja2 
Частий відвідувач


З нами з: 19.05.13
Востаннє: 07.04.20
Повідомлень: 29

2019-05-07 23:15  
11FrYkT
тепер добре?

Ваш часовий пояс: GMT + 2 Години

Нова тема   Відповісти