Боб-будівельник: Мегамашини / Bob the Builder: Mega Machines (2017) 1080p

Нові коментарі

Нова тема   Відповісти
Автор Повідомлення
Mirokha 
Частий відвідувач


З нами з: 10.02.09
Востаннє: 04.03.21
Повідомлень: 28

2019-05-06 10:12  
Боб-будівельник: Мегамашини / Bob the Builder: Mega Machines (2017) 1080p

Боб-будівельник: Мегамашини / Bob the Builder: Mega Machines (2017) 1080p


Жанр: дитячий, анімація, пригодницький, екшн, сімейний
Країна: Великобританія



Кінокомпанія: HIT Entertainment, Mainframe Entertainment
Режисер: Стюарт Еванс / Stuart Evans
Актори: Даніель Бекон, Ян Джеймс Корлетт, Брайан Кокс

Сюжет:
Боб та його команда планують разом з мегамашинами побудувати нову греблю та резервуар для Спрінг Сіті - але чи готові вони до цього мегачеленджу?


Тривалість: 00:59:51
Якість:
Відео:
кодек:
розмір кадру: 1920 х 1080
бітрейт: 4286 кб/с

Аудіо:
мова: українська
переклад: багатоголосий закадровий
кодек: MP3
бітрейт: 192 кб/с

Джерело озвучення:
Info
General
Unique ID : 106434434348409953914768910576815775286 (0x501286C3A0DCC13166EB304400CD1E36)
Complete name : I:\cartoons\Bob.the.Builder.Mega.Machines.2017.p.ukr.1080p..
Format :
Format version : Version 4
File size : 1.87 GiB
Duration : 59 min 51 s
Overall bit rate : 4 480 kb/s
Encoded date : UTC 2019-05-05 11:52:44
Writing application : v33.1.0 ('Primrose') 32-bit
Writing library : libebml v1.3.7 + v1.5.0

Video
ID : 1
Format : AVC
Format/Info : Advanced Video Codec
Format profile : [email protected]
Format settings : CABAC / 4 Ref Frames
Format settings, CABAC : Yes
Format settings, RefFrames : 4 frames
Codec ID : V_MPEG4/ISO/AVC
Duration : 59 min 51 s
Bit rate : 4 286 kb/s
Width : 1 920 pixels
Height : 1 080 pixels
Display aspect ratio : 16:9
Frame rate mode : Constant
Frame rate : 25.000 FPS
Color space : YUV
Chroma subsampling : 4:2:0
Bit depth : 8 bits
Scan type : Progressive
Bits/(Pixel*Frame) : 0.083
Stream size : 1.79 GiB (96%)
Writing library : core 152 r2851 ba24899
Encoding settings : cabac=1 / ref=4 / deblock=1:-1:-1 / analyse=0x3:0x133 / me=umh / subme=7 / psy=1 / psy_rd=1.00:0.15 / mixed_ref=1 / me_range=16 / chroma_me=1 / trellis=1 / 8x8dct=1 / cqm=0 / deadzone=21,11 / fast_pskip=0 / chroma_qp_offset=-3 / threads=16 / lookahead_threads=2 / sliced_threads=0 / nr=0 / decimate=1 / interlaced=0 / bluray_compat=0 / constrained_intra=0 / bframes=3 / b_pyramid=2 / b_adapt=1 / b_bias=0 / direct=1 / weightb=1 / open_gop=0 / weightp=2 / keyint=250 / keyint_min=25 / scenecut=40 / intra_refresh=0 / rc_lookahead=40 / rc=crf / mbtree=1 / crf=20.0 / qcomp=0.60 / qpmin=0 / qpmax=69 / qpstep=4 / ip_ratio=1.40 / aq=1:1.00
Default : Yes
Forced : No

Audio
ID : 2
Format : MPEG Audio
Format version : Version 1
Format profile : Layer 3
Format settings : Joint stereo
Codec ID : A_MPEG/L3
Codec ID/Hint : MP3
Duration : 59 min 46 s
Bit rate mode : Constant
Bit rate : 192 kb/s
Channel(s) : 2 channels
Sampling rate : 48.0 kHz
Frame rate : 41.667 FPS (1152 SPF)
Compression mode : Lossy
Stream size : 82.1 MiB (4%)
Language : Ukrainian
Default : Yes
Forced : No

Menu
00:00:00.000 : en:00:00:00.000
00:03:06.640 : en:00:03:06.640
00:06:15.480 : en:00:06:15.480
00:09:00.400 : en:00:09:00.400
00:10:45.760 : en:00:10:45.760
00:14:18.520 : en:00:14:18.520
00:20:27.040 : en:00:20:27.040
00:22:37.800 : en:00:22:37.800
00:27:35.640 : en:00:27:35.640
00:32:02.160 : en:00:32:02.160
00:35:59.640 : en:00:35:59.640
00:37:45.520 : en:00:37:45.520
00:41:04.960 : en:00:41:04.960
00:45:35.320 : en:00:45:35.320
00:48:29.480 : en:00:48:29.480
00:52:15.880 : en:00:52:15.880
00:56:34.400 : en:00:56:34.400
00:58:07.560 : en:00:58:07.560
Скріншоти





Особиста оцінка: 8 - мені сподобалося
Окрема подяка за відео: Electroz


 Трекер:    Зареєстрований   

Завантажити / скачати мультфільм українською



відео для новачків



 Зареєстрований:   2019-05-06 10:12
 Розмір:   1.87 GB 
 Оцінка мультфільму:   9.1/10 (Голосів: 7)
   
Інші релізи
Ваш часовий пояс: GMT + 2 Години

Нова тема   Відповісти