Термінатор 3: Повстання Машин / Terminator 3: Rise of the Machines (2003) Remux 1080p 2xUkr/Eng | Sub Eng

Нові коментарі

Нова тема   Відповісти
Автор Повідомлення
MakRA 
VIP


З нами з: 11.11.18
Востаннє: 29.09.20
Повідомлень: 1120

2019-05-05 23:44  
Термінатор 3: Повстання Машин / Terminator 3: Rise of the Machines (2003) Remux 1080p 2xUkr/Eng | Sub Eng

Термінатор 3: Повстання Машин / Terminator 3: Rise of the Machines (2003) Remux 1080p 2xUkr/Eng | Sub Eng

Українські постери:

[


Альтернативна обкладинка:



Жанр: екшн, фантастика
Країна: США



Кінокомпанія: C-2 Pictures, Intermedia Films, IMF Internationale Medien und Film GmbH & Co. 3. Produktions KG
Режисер: Джонатан Мостоу [Jonathan Mostow]
Актори: Арнольд Шварценеґґер [Arnold Schwarzenegger], Нік Став [Nick Stahl], Клер Дейнс [Claire Danes], Крістанна Локен [Kristanna Loken], Девід Ендрюс [David Andrews], Марк Фаміглетті [Mark Famiglietti], Ерл Боен [Earl Boen]

Сюжет:
Зазнавши чергової поразки в спробах усунути Джона Коннора, СкайНет зовсім не здався і не відступив. Більш того, він почав розробку абсолютно нового робота вбивці, який зміг би перевершити навіть хваленного Т-1000.
Джон Коннор, чудово знаючи, що полювання за ним ні на мить не вщухає, веде важке життя відлюдника-мандрівника, не маючи не те що сім'ї або постійного місця проживання, але навіть роботи або кредитки. Подорожуючи по країні, він ніде не затримується надовго, живучи в постійному страху появи нового термінатора, який спробує її знищити. І як виявилося не дарма. Адже через 10 років після останньої сутички з роботом вбивці, він зустрічає Т-Х – робота нового покоління, який знову був закинений в минуле для усунення ватажка людського повстання. І знову на допомогу останньої надії людства приходить з кращих солдатів повстанців – старий термінатор – один з перших випущених СкайНетом роботів – вбивць.

Цікаве про фільм:

-Крім Арнольда Шварценеґера, єдиний актор, який знявся у всіх трьох частинах фільму — Ерл Боен, який зіграв лікаря Зільбермана.
-Точний час початку Судного Дня: 18:00 24 липня 2004 року.
-Гонорар Шварценеггера склав 30 мільйонів доларів, встановивши рекорд у рік виходу фільму.
-Монтаж сцени гонитви зайняв 6 місяців.
-Крістанна Локен промовляє всі свої репліки в перші 25 хвилин фільму.
-а цим фільмом вийшла однойменна відеогра на ПК, коли до гри підключається персонаж Термінатора, він промовляє «I'm back» (Я повернувся).
-Із фільму вирізали сцену, яка пояснювала, чому Термінатори виглядають як Арнольд. В цьому епізоді сержант Кенді, якого зіграв Шварценеггер, говорить про те, чому його зовнішність буде використана для створення Термінаторів. Цю сцену можна знайти на DVD-дисках із фільмом.
-Кандидатура Шейна Веста, Бена Кертіса, Кріса Клейна розглядалась на роль Джона Коннора.
-Шварценеґер — любитель австрійських вафель Manner, він вирішив прорекламувати їх у фільмі, коли його герой купує кілька пачок на автостанції посеред пустелі.


Тривалість: 01:49:06
Якість: Remux
Відео:
кодек:
розмір кадру: 1920 х 1080
бітрейт: 26.7 Мб/с

Аудіо # 1: &
мова: українська
переклад: двоголосий закадровий
кодек: 2.0
бітрейт: 192 кб/с

Аудіо # 2:
мова: українська
переклад: багатоголосий закадровий
кодек: 2.0
бітрейт: 192 кб/с

Аудіо # 3:
мова: англійська
переклад: оригінал
кодек: -HD MA 5.1
бітрейт: 1 831 кб/с

Аудіо # 4:
мова: англійська
переклад: оригінал
кодек: 5.1
бітрейт: 640 кб/с

Аудіо # 5:
мова: англійська
переклад: коментарі акторів Арнольда Шварценеггера, Ніка Став, Клер Дейнс і Крістанни Локен
кодек: 2.0
бітрейт: 192 кб/с

Аудіо # 6:
мова: англійська
переклад: коментарі режисера Джонатана Мостоу
кодек: 2.0
бітрейт: 192 кб/с

Субтитри # 1: (full)
мова: англійська
тип: пререндерні
формат: *.pgs

Субтитри # 2: (full) | на коментарі акторів Арнольда Шварценеггера, Ніка Став, Клер Дейнс і Крістанни Локен
мова: англійська
тип: пререндерні
формат: *.pgs

Субтитри # 3: (full) | на коментарі режисера Джонатана Мостоу
мова: англійська
тип: пререндерні
формат: *.pgs
Info
General
Unique ID : 230619584877433680086560351182162616497 (0xAD7FB767CF488C9E234070E417DDE0B1)
Complete name : H:\Термінатор. Колекція (1984-2015) 1080p\Terminator 3 Rise of the Machines (2003) Remux 1080p 2xUkrEng Sub Eng [Hurtom].
Format :
Format version : Version 4 / Version 2
File size : 22.9 GiB
Duration : 1 h 49 min
Overall bit rate mode : Variable
Overall bit rate : 30.1 Mb/s
Movie name : Термінатор 3: Повстання Машин / Terminator 3: Rise of the Machines (2003) Remux 1080p 2xUkr/Eng | Sub Eng [Hurtom]
Encoded date : UTC 2019-05-05 15:35:20
Writing application : v25.0.0 ('Prog Noir') 64-bit
Writing library : libebml v1.3.6 + v1.4.9

Video
ID : 1
Format : AVC
Format/Info : Advanced Video Codec
Format profile : [email protected]
Format settings, CABAC : Yes
Format settings, RefFrames : 4 frames
Codec ID : V_MPEG4/ISO/AVC
Duration : 1 h 49 min
Bit rate mode : Variable
Bit rate : 26.7 Mb/s
Maximum bit rate : 28.5 Mb/s
Width : 1 920 pixels
Height : 1 080 pixels
Display aspect ratio : 16:9
Frame rate mode : Constant
Frame rate : 23.976 (24000/1001) FPS
Color space : YUV
Chroma subsampling : 4:2:0
Bit depth : 8 bits
Scan type : Progressive
Bits/(Pixel*Frame) : 0.537
Stream size : 20.3 GiB (89%)
Title : Terminator 3: Rise of the Machines (2003) Remux 1080p 2xUkr/Eng | Sub Eng [Hurtom]
Language : Ukrainian
Default : Yes
Forced : Yes
Color range : Limited
Color primaries : BT.709
Transfer characteristics : BT.709
Matrix coefficients : BT.709

Audio #1
ID : 2
Format : AC-3
Format/Info : Audio Coding 3
Format settings, Endianness : Big
Codec ID : A_AC3
Duration : 1 h 49 min
Bit rate mode : Constant
Bit rate : 192 kb/s
Channel(s) : 2 channels
Channel positions : Front: L R
Sampling rate : 48.0 kHz
Frame rate : 31.250 FPS (1536 SPF)
Bit depth : 16 bits
Compression mode : Lossy
Stream size : 150 MiB (1%)
Title : DVO [ІНТЕР] [УКРАЇНА]
Language : Ukrainian
Service kind : Complete Main
Default : Yes
Forced : Yes

Audio #2
ID : 3
Format : AC-3
Format/Info : Audio Coding 3
Format settings, Endianness : Big
Codec ID : A_AC3
Duration : 1 h 49 min
Bit rate mode : Constant
Bit rate : 192 kb/s
Channel(s) : 2 channels
Channel positions : Front: L R
Sampling rate : 48.0 kHz
Frame rate : 31.250 FPS (1536 SPF)
Bit depth : 16 bits
Compression mode : Lossy
Stream size : 150 MiB (1%)
Title : MVO [ICTV]
Language : Ukrainian
Service kind : Complete Main
Default : No
Forced : No

Audio #3
ID : 4
Format : TrueHD
Codec ID : A_TRUEHD
Duration : 1 h 49 min
Bit rate mode : Variable
Bit rate : 1 831 kb/s
Maximum bit rate : 3 564 kb/s
Channel(s) : 6 channels
Channel positions : Front: L C R, Side: L R, LFE
Sampling rate : 48.0 kHz
Frame rate : 1 200.000 FPS (40 SPF)
Compression mode : Lossless
Stream size : 1.40 GiB (6%)
Title : Original TrueHD 5.1
Language : English
Default : No
Forced : No

Audio #4
ID : 5
Format : AC-3
Format/Info : Audio Coding 3
Format settings, Endianness : Big
Codec ID : A_AC3
Duration : 1 h 49 min
Bit rate mode : Constant
Bit rate : 640 kb/s
Channel(s) : 6 channels
Channel positions : Front: L C R, Side: L R, LFE
Sampling rate : 48.0 kHz
Frame rate : 31.250 FPS (1536 SPF)
Bit depth : 16 bits
Compression mode : Lossy
Stream size : 499 MiB (2%)
Title : Original AC-3 5.1
Language : English
Service kind : Complete Main
Default : No
Forced : No

Audio #5
ID : 6
Format : AC-3
Format/Info : Audio Coding 3
Mode : Dolby Digital
Format settings, Endianness : Big
Codec ID : A_AC3
Duration : 1 h 49 min
Bit rate mode : Constant
Bit rate : 192 kb/s
Channel(s) : 2 channels
Channel positions : Front: L R
Sampling rate : 48.0 kHz
Frame rate : 31.250 FPS (1536 SPF)
Bit depth : 16 bits
Compression mode : Lossy
Stream size : 150 MiB (1%)
Title : Original | Commentary Actors Arnold Schwarzenegger, Nick Stahl, Claire Danes & Kristanna Loken
Language : English
Service kind : Complete Main
Default : No
Forced : No

Audio #6
ID : 7
Format : AC-3
Format/Info : Audio Coding 3
Mode : Dolby Digital
Format settings, Endianness : Big
Codec ID : A_AC3
Duration : 1 h 49 min
Bit rate mode : Constant
Bit rate : 192 kb/s
Channel(s) : 2 channels
Channel positions : Front: L R
Sampling rate : 48.0 kHz
Frame rate : 31.250 FPS (1536 SPF)
Bit depth : 16 bits
Compression mode : Lossy
Stream size : 150 MiB (1%)
Title : Original | Commentary by Director Jonathan Mostow
Language : English
Service kind : Complete Main
Default : No
Forced : No

Text #1
ID : 8
Format : PGS
Muxing mode : zlib
Codec ID : S_HDMV/PGS
Codec ID/Info : Picture based subtitle format used on BDs/HD-DVDs
Duration : 1 h 39 min
Bit rate : 18.8 kb/s
Count of elements : 1470
Stream size : 13.4 MiB (0%)
Title : Original
Language : English
Default : No
Forced : No

Text #2
ID : 9
Format : PGS
Muxing mode : zlib
Codec ID : S_HDMV/PGS
Codec ID/Info : Picture based subtitle format used on BDs/HD-DVDs
Duration : 1 h 46 min
Bit rate : 60.7 kb/s
Count of elements : 3380
Stream size : 46.3 MiB (0%)
Title : Commentary Actors Arnold Schwarzenegger, Nick Stahl, Claire Danes & Kristanna Loken
Language : English
Default : No
Forced : No

Text #3
ID : 10
Format : PGS
Muxing mode : zlib
Codec ID : S_HDMV/PGS
Codec ID/Info : Picture based subtitle format used on BDs/HD-DVDs
Duration : 1 h 42 min
Bit rate : 67.1 kb/s
Count of elements : 3298
Stream size : 49.3 MiB (0%)
Title : Commentary by Director Jonathan Mostow
Language : English
Default : No
Forced : No
Скріншоти
Джерело: &
Особиста оцінка: 10 - без зайвих вагань рекомендую всім!
Подяка пп. taraskill1, DеLight, Romario_O , Arsenfpu, robotron005 - зведення, пп. Sando7, AngryBirdsUA, urij546724, karvai0, dvorsky, slavik_v_z - запис звуку,
п. drobik81 - українізовані постери.


Золотий реліз (завантажене не впливає на рейтинг)
 Трекер:    Зареєстрований   

Завантажити / скачати фільм українською



відео для новачків



 Зареєстрований:   2019-05-05 23:44
 Розмір:   22.91 GB 
 Оцінка фільму:   9.4/10 (Голосів: 17)
   
jaral 
Забанено
Забанено


З нами з: 18.10.07
Востаннє: 21.01.20
Повідомлень: 977

2019-06-01 21:14  
Не хочеться вірити, що і тут втрачено театральний дубляж або не існує озвучка українською.
Аркадій Дзиґа 
VIP


З нами з: 09.10.14
Востаннє: 29.09.20
Повідомлень: 463

2020-01-26 19:08  
Жахливий фільм. Аж не віриться, що так можна спаплюжити образ Термінатора і задум шедевральної Дилогії. Але це не вперше й не востаннє у Кінематографі Wide grin Wide grin Wide grin Wide grin Wide grin
Ваш часовий пояс: GMT + 2 Години

Нова тема   Відповісти