Марсіянин / The Martian (2015) HybridRip [Open Matte] 1080p H.265 Ukr/Eng | Sub Ukr/Eng

Нові коментарі

Нова тема   Відповісти
Автор Повідомлення
Anonymous 







2019-05-05 23:33  
Марсіянин / The Martian (2015) HybridRip [Open Matte] 1080p H.265 Ukr/Eng | Sub Ukr/Eng

Марсіянин / The Martian (2015) HybridRip [Open Matte] 1080p H.265 Ukr/Eng | Sub Ukr/Eng


Жанр: пригодницький, драма, фантастика
Країна: США, Велика Британія
Кінокомпанія: Twentieth Century Fox, TSG Entertainment, Scott Free Productions
Режисер: Рідлі Скотт / Ridley Scott
Актори: Мет Деймон / Matt Damon, Джесіка Честейн / Jessica Chastain, Крістен Вііґ / Kristen Wiig, Джеф Деніелс / Jeff Daniels, Майкл Пенья / Michael Peña, Шон Бін / Sean Bean, Кейт Мара / Kate Mara, Себастьян Стен / Sebastian Stan, Аксель Генні / Aksel Hennie, Чіветель Еджіофор / Chiwetel Ejiofor, Бенедикт Вонґ / Benedict Wong та інші.

Сюжет:
Марк Вотні - один з членів експедиції "Арес-3" на Марс. Щоб уникнути загибелі людей під час лютої бурі, було прийнято рішення всю місію евакуювати. Однак не всі встигли вчасно покинути червону планету. На Землі прийшли до висновку, що Марк Вотні трагічно загинув під час сильної бурі, хоча насправді він живий. У нього найважча місія в історії людства: вижити на чужій планеті одному, з обмеженою кількістю продуктів і без можливості зв'язатися з домом. До наступної місії на Марс потрібно чекати як мінімум чотири роки. Марку доведеться використовувати всю свою кмітливість і навички, щоб не тільки повідомити про те, що він не помер, але і постаратися зберегти своє життя...

Тривалість: 02:21:37
Якість: HybridRip
Відео:
кодек: H.265 (HEVC)
розмір кадру: 1920 x 1080
бітрейт: 7 715 кб/с
бітова глибина: 10 біт
Увага! Перед завантаженням переконайтесь, що ваш пристрій відтворення (та/або ПЗ) підтримує H.265 (HEVC)

Аудіо # 1:
мова: українська
переклад: професійний дубльований
кодек: AC-3 5.1
бітрейт: 448 кб/с

Аудіо # 2:
мова: англійська
переклад: оригінал
кодек: 5.1
бітрейт: 1510 кб/с

Субтитри # 1:
мова: українська (Forced),
тип: програмні (м'які)
формат: *.srt

Субтитри # 2:
мова: українська (Full),
тип: програмні (м'які)
формат: *.srt

Субтитри # 3:
мова: англійська (Forced),
тип: програмні (м'які)
формат: *.srt

Субтитри # 4:
мова: англійська (Full),
тип: програмні (м'які)
формат: *.srt


Info
Код:
General
Unique ID                                : 78702358780668125296511103385050529924 (0x3B3585DFDA193754A0112EADD92FC084)
Complete name                            : F:\Video\The Martian (2015) [Theatrical Cut] 1080p [UKR_ENG] [Hurtom].
Format                                   :
Format version                           : Version 4 / Version 2
File size                                : 9.57 GiB
Duration                                 : 2 h 21 min
Overall bit rate                         : 9 675 kb/s
Movie name                               : Марсіянин / The Martian (2015) [Theatrical Cut]
Encoded date                             : UTC 2019-05-03 16:20:30
Writing application                      : v20.0.0 ('I Am The Sun') 64-bit
Writing library                          : libebml v1.3.5 + v1.4.8
Cover                                    : Yes
Attachments                              : cover.jpg

Video
ID                                       : 1
Format                                   : HEVC
Format/Info                              : High Efficiency Video Coding
Format profile                           : Main [email protected]@High
Codec ID                                 : V_MPEGH/ISO/HEVC
Duration                                 : 2 h 21 min
Bit rate                                 : 7 715 kb/s
Width                                    : 1 920 pixels
Height                                   : 1 080 pixels
Display aspect ratio                     : 16:9
Frame rate mode                          : Constant
Frame rate                               : 23.976 (24000/1001) FPS
Color space                              : YUV
Chroma subsampling                       : 4:2:0
Bit depth                                : 10 bits
Bits/(Pixel*Frame)                       : 0.155
Stream size                              : 7.63 GiB (80%)
Title                                    : Марсіянин / The Martian (2015) [Theatrical Cut]
Writing library                          : x265 2.9+9-f74003e88622:[Windows][GCC 8.2.0][64 bit] 10bit
Encoding settings                        : cpuid=1049583 / frame-threads=5 / numa-pools=4 / wpp / no-pmode / no-pme / no-psnr / no-ssim / log-level=3 / input-csp=1 / input-res=1920x1080 / interlace=0 / total-frames=0 / level-idc=41 / high-tier=1 / uhd-bd=0 / ref=4 / allow-non-conformance / no-repeat-headers / annexb / no-aud / no-hrd / info / hash=0 / no-temporal-layers / open-gop / min-keyint=24 / keyint=240 / gop-lookahead=0 / bframes=12 / b-adapt=2 / b-pyramid / bframe-bias=0 / rc-lookahead=40 / lookahead-slices=6 / scenecut=40 / radl=0 / no-intra-refresh / ctu=32 / min-cu-size=8 / rect / no-amp / max-tu-size=32 / tu-inter-depth=4 / tu-intra-depth=4 / limit-tu=1 / rdoq-level=1 / dynamic-rd=0.00 / no-ssim-rd / signhide / no-tskip / nr-intra=0 / nr-inter=0 / no-constrained-intra / no-strong-intra-smoothing / max-merge=5 / limit-refs=3 / no-limit-modes / me=3 / subme=7 / merange=57 / temporal-mvp / weightp / weightb / no-analyze-src-pics / deblock=-3:-3 / no-sao / no-sao-non-deblock / rd=4 / no-early-skip / no-rskip / no-fast-intra / no-tskip-fast / no-cu-lossless / no-b-intra / no-splitrd-skip / rdpenalty=0 / psy-rd=2.00 / psy-rdoq=1.00 / no-rd-refine / no-lossless / cbqpoffs=0 / crqpoffs=0 / rc=crf / crf=22.0 / qcomp=0.60 / qpstep=4 / stats-write=0 / stats-read=0 / vbv-maxrate=50000 / vbv-bufsize=50000 / vbv-init=0.9 / crf-max=0.0 / crf-min=0.0 / ipratio=1.40 / pbratio=1.30 / aq-mode=3 / aq-strength=1.00 / no-cutree / zone-count=0 / no-strict-cbr / qg-size=32 / no-rc-grain / qpmax=69 / qpmin=0 / no-const-vbv / sar=1 / overscan=0 / videoformat=5 / range=0 / colorprim=1 / transfer=1 / colormatrix=1 / chromaloc=0 / display-window=0 / max-cll=0,0 / min-luma=0 / max-luma=1023 / log2-max-poc-lsb=8 / vui-timing-info / vui-hrd-info / slices=1 / no-opt-qp-pps / no-opt-ref-list-length-pps / no-multi-pass-opt-rps / scenecut-bias=0.05 / no-opt-cu-delta-qp / no-aq-motion / no-hdr / no-hdr-opt / no-dhdr10-opt / no-idr-recovery-sei / analysis-reuse-level=5 / scale-factor=0 / refine-intra=0 / refine-inter=0 / refine-mv=0 / no-limit-sao / ctu-info=0 / no-lowpass-dct / refine-mv-type=0 / copy-pic=1 / max-ausize-factor=1.0 / no-dynamic-refine / no-single-sei
Language                                 : English
Default                                  : Yes
Forced                                   : No
Color range                              : Limited
Color primaries                          : BT.709
Transfer characteristics                 : BT.709
Matrix coefficients                      : BT.709

Audio #1
ID                                       : 2
Format                                   : AC-3
Format/Info                              : Audio Coding 3
Codec ID                                 : A_AC3
Duration                                 : 2 h 21 min
Bit rate mode                            : Constant
Bit rate                                 : 448 kb/s
Channel(s)                               : 6 channels
Channel positions                        : Front: L C R, Side: L R, LFE
Sampling rate                            : 48.0 kHz
Frame rate                               : 31.250 FPS (1536 SPF)
Bit depth                                : 16 bits
Compression mode                         : Lossy
Stream size                              : 454 MiB (5%)
Title                                    : 5.1 @ 448 kbps - Blu-ray 3D EUR
Language                                 : Ukrainian
Service kind                             : Complete Main
Default                                  : Yes
Forced                                   : Yes

Audio #2
ID                                       : 3
Format                                   :
Format/Info                              : Digital Theater Systems
Codec ID                                 : A_DTS
Duration                                 : 2 h 21 min
Bit rate mode                            : Constant
Bit rate                                 : 1 509 kb/s
Channel(s)                               : 6 channels
Channel positions                        : Front: L C R, Side: L R, LFE
Sampling rate                            : 48.0 kHz
Frame rate                               : 93.750 FPS (512 SPF)
Bit depth                                : 24 bits
Compression mode                         : Lossy
Delay relative to video                  : 11 ms
Stream size                              : 1.49 GiB (16%)
Title                                    : 5.1 @ 1536 kbps
Language                                 : English
Default                                  : No
Forced                                   : No

Text #1
ID                                       : 4
Format                                   : UTF-8
Codec ID                                 : S_TEXT/UTF8
Codec ID/Info                            : UTF-8 Plain Text
Duration                                 : 2 h 20 min
Bit rate                                 : 3 b/s
Count of elements                        : 67
Stream size                              : 3.40 KiB (0%)
Title                                    : Forced
Language                                 : Ukrainian
Default                                  : Yes
Forced                                   : Yes

Text #2
ID                                       : 5
Format                                   : UTF-8
Codec ID                                 : S_TEXT/UTF8
Codec ID/Info                            : UTF-8 Plain Text
Duration                                 : 2 h 20 min
Bit rate                                 : 94 b/s
Count of elements                        : 1753
Stream size                              : 96.6 KiB (0%)
Title                                    : Full
Language                                 : Ukrainian
Default                                  : No
Forced                                   : No

Text #3
ID                                       : 6
Format                                   : UTF-8
Codec ID                                 : S_TEXT/UTF8
Codec ID/Info                            : UTF-8 Plain Text
Duration                                 : 47 s 666 ms
Bit rate                                 : 91 b/s
Count of elements                        : 12
Stream size                              : 548 Bytes (0%)
Title                                    : Forced
Language                                 : English
Default                                  : No
Forced                                   : No

Text #4
ID                                       : 7
Format                                   : UTF-8
Codec ID                                 : S_TEXT/UTF8
Codec ID/Info                            : UTF-8 Plain Text
Duration                                 : 2 h 13 min
Bit rate                                 : 54 b/s
Count of elements                        : 1617
Stream size                              : 53.4 KiB (0%)
Title                                    : Full
Language                                 : English
Default                                  : No
Forced                                   : No

Menu
00:00:00.000                             : en:Just Another Day (SOL 18)
00:03:22.411                             : en:Mission Update: Storm Warning
00:10:09.234                             : en:Left Behind
00:15:24.715                             : en:After The Storm (SOL 19)
00:18:25.313                             : en:Taking stock
00:21:34.502                             : en:Farming
00:24:28.217                             : en:Water (SOL 36)
00:28:52.814                             : en:"He's gonna be up there forever"
00:31:36.770                             : en:Check these coordinates
00:34:21.226                             : en:Driving
00:39:13.560                             : en:Let's come up with a plan
00:41:21.896                             : en:Making contact (SOL 79)
00:46:23.656                             : en:Pathfinder
00:49:25.212                             : en:Let's talk
00:56:15.872                             : en:Hermes
00:59:40.619                             : en:Colonization (SOL 128)
01:02:23.949                             : en:Something goes wrong
01:06:53.259                             : en:"Sorry we left you behind" (SOL 136)
01:09:53.106                             : en:Regroup & Reassess
01:13:51.427                             : en:IRIS Probe
01:18:38.380                             : en:More Friends (SOL 186)
01:22:52.593                             : en:Project Elrond
01:30:41.394                             : en:Rich Purnell Maneuver
01:37:30.219                             : en:Space Pirate (SOL 461)
01:43:32.123                             : en:You're not going to like this(SOL 517)
01:46:16.412                             : en:Fastest Man in the history of space travel (SOL 538)
01:50:18.862                             : en:The Plan (SOL 560)
01:54:08.091                             : en:Liftoff
01:57:49.437                             : en:A New Plan
02:04:41.808                             : en:Let's get him!
02:11:05.858                             : en:Earth (Day 1)
02:13:28.918                             : en:Epilogue
02:16:05.000                             : en:Credits
02:21:38.000                             : en:End Mark
Світлини





Джерело: &
Особиста оцінка: 10 - без зайвих вагань рекомендую всім!


 Трекер:    Зареєстрований   

Завантажити / скачати фільм українською



відео для новачків



 Зареєстрований:   2019-05-05 23:33
 Розмір:   9.57 GB 
 Оцінка фільму:   9.7/10 (Голосів: 7)
   
Інші релізи
   Марсіянин / The Martian (2015) HybridRip-AVC [Open Matte] Ukr/Eng | Sub Ukr/Eng Sando7  7 / 0   3.25 GB   2019-04-17 12:15 
   Марсіянин [Розширена версія] / The Martian [Extended Cut] (2015) 1080p H.265 Ukr/Eng | Sub Ukr/Eng ukr_anonymous  12 / 0   6.44 GB   2018-06-26 14:22 
   Марсіянин [Розширена версія] / The Martian [Extended Cut] (2015) UHD 4K 2160p Ukr/Eng | Sub Ukr/Eng Babamin  3 / 0   14.88 GB   2017-09-29 17:44 
   Марсіянин / The Martian (2015) UHD Remux 4K 2160p Ukr/Eng | Sub Ukr/Eng Babamin  4 / 0   40.29 GB   2017-09-12 13:04 
   Марсіянин [Розширена версія] / The Martian [Extended Cut] (2015) AVC Ukr/Eng | Sub Ukr/Eng Kris  19 / 0   4.47 GB   2017-07-15 20:26 
   Марсіянин [Розширена версія] / The Martian [Extended Cut] (2015) Ukr | Sub Ukr Demrandir  10 / 0   2.43 GB   2017-07-10 14:55 
   Марсіянин [Розширена версія] / The Martian [Extended Cut] (2015) [5.1 ] Український дубляж + вставки оригіналу | Sub Ukr Demrandir  1 / 0   485 MB   2017-07-10 14:39 
   Марсіянин / The Martian (2015) 720p-mini (60 fps) Drool  0 / 0   5.54 GB   2016-01-19 14:49 
   Марсіянин / The Martian (2015) AVC Ukr/Eng | Sub Ukr/Eng BASTERD-94  5 / 0   2.91 GB   2016-01-13 23:30 
   Марсіянин / The Martian (2015) Remux 1080p Ukr/Eng | Sub Ukr/Eng famous37  5 / 0   32.09 GB   2016-01-13 21:14 
   Марсіянин / The Martian (2015) 720p-mini Drool  7 / 0   2.63 GB   2016-01-13 00:01 
   Марсіянин / The Martian (2015) 1080p Ukr/Eng | Sub Ukr/Eng 11FrYkT  11 / 0   16.09 GB   2016-01-10 00:04 
   Марсіянин / The Martian (2015) 720p Ukr/Eng | Sub Ukr/Eng 11FrYkT  9 / 0   7.09 GB   2016-01-09 23:46 
   Марсіянин / The Martian (2015) Ukr/Eng | Sub Ukr/Eng Gelios  31 / 0   2.18 GB   2016-01-09 23:40 
   Марсіянин / The Martian (2015) 1080p 3D Ukr/Eng | Sub Ukr/Eng [Half SideBySide] -VipeR-  4 / 1   13.13 GB   2016-01-03 18:25 
vash1 
Поважний учасник


З нами з: 16.03.16
Востаннє: 11.07.19
Повідомлень: 199

2019-05-13 20:51  
крутий hybrid.. шукав шви - не знайшов..
Ваш часовий пояс: GMT + 2 Години

Нова тема   Відповісти