Наркокур'єр / The Mule (2018) 1080p H.265 Ukr/Eng | Sub Eng

Нові коментарі

Нова тема   Відповісти
Автор Повідомлення
Anonymous 







2019-05-05 22:19  
Наркокур'єр / The Mule (2018) 1080p H.265 Ukr/Eng | Sub Eng

Наркокур'єр / The Mule (2018) 1080p H.265 Ukr/Eng | Sub Eng


Жанр: детектив, драма, кримінальний, трилер
Країна: США
Кінокомпанія: Warner Bros., Imperative Entertainment, Bron Creative
Режисер: Клінт Іствуд
Актори: Клінт Іствуд, Бредлі Купер, Таїсса Фарміга, Елісон Іствуд, Майкл Пенья, Енді Гарсіа, Лоуренс Фішберн, Даян Віст, Джилл Флінт

Сюжет:
Ерл Стоун — самотній старий. Його приватний бізнес знаходиться на межі банкрутства, відносини з дружиною не ладяться, а діти, здається, давно забули про його існування. Несподівано йому пропонують незапорошений, але прибутковий підробіток — просто водити машину. Стоун спочатку погоджується і незабаром розуміє, що став наркокур'єром мексиканського картелю і потрапив в поле зору оперативника Агентства з контролю за оборотом наркотиків.

Тривалість: 01:56:27
Якість:
Відео:
кодек: H.265 (HEVC)
розмір кадру: 1920 x 804
бітрейт: 4 515 кб/с
бітова глибина: 10 біт
Увага! Перед завантаженням переконайтесь, що ваш пристрій відтворення (та/або ПЗ) підтримує H.265 (HEVC)

Аудіо # 1:
мова: українська
переклад: професійний дубльований | студія Postmodern
кодек: AC-3 5.1
бітрейт: 384 кб/с
Інформація про дубляж:
Переклад: Олег Колесніков
Режисер дубляжу: Людмила Петриченко
Звукорежисер: Геннадій Алєксєєв
Звукорежисер перезапису: Юрій Антонов
ролі дублювали: Юрій Висоцький, Андрій Твердак, Роман Чорний, Ірина Дорошенко, Юрій Ребрик, Кирило Нікітенко, Дмитро Гаврилов та інші.

Фільм дубльовано студією Postmodern
Аудіо # 2:
мова: англійська
переклад: оригінал
кодек: 5.1
бітрейт: 1510 кб/с

Субтитри # 1:
мова: українська (Forced),
тип: програмні (м'які)
формат: *.srt

Субтитри # 2-4:
мова: англійська (Full, SDH, SDH-Colored),
тип: програмні (м'які)
формат: *.srt


Info
Код:
General
Unique ID                                : 64631604310845615402405379785938826994 (0x309F981E1EE22E244B75C3AD8669F6F2)
Complete name                            : The Mule (2018) 1080p H.265 [UKR_ENG] [Hurtom].
Format                                   :
Format version                           : Version 4 / Version 2
File size                                : 5.21 GiB
Duration                                 : 1 h 56 min
Overall bit rate                         : 6 411 kb/s
Movie name                               : Наркокур'єр / The Mule (2018)
Encoded date                             : UTC 2019-07-11 07:54:20
Writing application                      : v20.0.0 ('I Am The Sun') 64-bit
Writing library                          : libebml v1.3.5 + v1.4.8
Cover                                    : Yes
Attachments                              : cover.jpg

Video
ID                                       : 1
Format                                   : HEVC
Format/Info                              : High Efficiency Video Coding
Format profile                           : Main [email protected]@High
Codec ID                                 : V_MPEGH/ISO/HEVC
Duration                                 : 1 h 56 min
Bit rate                                 : 4 515 kb/s
Width                                    : 1 920 pixels
Height                                   : 804 pixels
Display aspect ratio                     : 2.40:1
Frame rate mode                          : Constant
Frame rate                               : 23.976 (24000/1001) FPS
Color space                              : YUV
Chroma subsampling                       : 4:2:0
Bit depth                                : 10 bits
Bits/(Pixel*Frame)                       : 0.122
Stream size                              : 3.67 GiB (70%)
Title                                    : Наркокур'єр / The Mule (2018)
Writing library                          : x265 2.9+9-f74003e88622:[Windows][GCC 8.2.0][64 bit] 10bit
Encoding settings                        : cpuid=1111039 / frame-threads=7 / numa-pools=6 / wpp / no-pmode / no-pme / no-psnr / no-ssim / log-level=3 / input-csp=1 / input-res=1920x804 / interlace=0 / total-frames=0 / level-idc=41 / high-tier=1 / uhd-bd=0 / ref=5 / allow-non-conformance / no-repeat-headers / annexb / no-aud / no-hrd / info / hash=0 / no-temporal-layers / open-gop / min-keyint=24 / keyint=240 / gop-lookahead=0 / bframes=9 / b-adapt=2 / b-pyramid / bframe-bias=0 / rc-lookahead=20 / lookahead-slices=5 / scenecut=40 / radl=0 / no-intra-refresh / ctu=64 / min-cu-size=8 / rect / amp / max-tu-size=32 / tu-inter-depth=1 / tu-intra-depth=1 / limit-tu=0 / rdoq-level=0 / dynamic-rd=0.00 / no-ssim-rd / signhide / no-tskip / nr-intra=0 / nr-inter=0 / no-constrained-intra / no-strong-intra-smoothing / max-merge=2 / limit-refs=3 / no-limit-modes / me=3 / subme=7 / merange=57 / temporal-mvp / weightp / no-weightb / no-analyze-src-pics / deblock=-3:-3 / no-sao / no-sao-non-deblock / rd=3 / no-early-skip / rskip / no-fast-intra / no-tskip-fast / no-cu-lossless / no-b-intra / no-splitrd-skip / rdpenalty=0 / psy-rd=2.00 / psy-rdoq=0.00 / no-rd-refine / no-lossless / cbqpoffs=0 / crqpoffs=0 / rc=crf / crf=18.0 / qcomp=0.70 / qpstep=4 / stats-write=0 / stats-read=0 / vbv-maxrate=50000 / vbv-bufsize=50000 / vbv-init=0.9 / crf-max=30.0 / crf-min=0.0 / ipratio=1.40 / pbratio=1.30 / aq-mode=1 / aq-strength=1.00 / cutree / zone-count=0 / no-strict-cbr / qg-size=32 / no-rc-grain / qpmax=69 / qpmin=0 / no-const-vbv / sar=1 / overscan=0 / videoformat=5 / range=0 / colorprim=1 / transfer=1 / colormatrix=1 / chromaloc=0 / display-window=0 / max-cll=0,0 / min-luma=0 / max-luma=1023 / log2-max-poc-lsb=8 / vui-timing-info / vui-hrd-info / slices=1 / no-opt-qp-pps / no-opt-ref-list-length-pps / no-multi-pass-opt-rps / scenecut-bias=0.05 / no-opt-cu-delta-qp / no-aq-motion / no-hdr / no-hdr-opt / no-dhdr10-opt / no-idr-recovery-sei / analysis-reuse-level=5 / scale-factor=0 / refine-intra=0 / refine-inter=0 / refine-mv=0 / no-limit-sao / ctu-info=0 / no-lowpass-dct / refine-mv-type=0 / copy-pic=1 / max-ausize-factor=1.0 / no-dynamic-refine / no-single-sei
Default                                  : Yes
Forced                                   : No
Color range                              : Limited
Color primaries                          : BT.709
Transfer characteristics                 : BT.709
Matrix coefficients                      : BT.709

Audio #1
ID                                       : 2
Format                                   : AC-3
Format/Info                              : Audio Coding 3
Codec ID                                 : A_AC3
Duration                                 : 1 h 56 min
Bit rate mode                            : Constant
Bit rate                                 : 384 kb/s
Channel(s)                               : 6 channels
Channel positions                        : Front: L C R, Side: L R, LFE
Sampling rate                            : 48.0 kHz
Frame rate                               : 31.250 FPS (1536 SPF)
Bit depth                                : 16 bits
Compression mode                         : Lossy
Stream size                              : 320 MiB (6%)
Title                                    : ПД - 5.1 @ 384 kbps - iTunes
Language                                 : Ukrainian
Service kind                             : Complete Main
Default                                  : Yes
Forced                                   : Yes

Audio #2
ID                                       : 3
Format                                   :
Format/Info                              : Digital Theater Systems
Codec ID                                 : A_DTS
Duration                                 : 1 h 56 min
Bit rate mode                            : Constant
Bit rate                                 : 1 509 kb/s
Channel(s)                               : 6 channels
Channel positions                        : Front: L C R, Side: L R, LFE
Sampling rate                            : 48.0 kHz
Frame rate                               : 93.750 FPS (512 SPF)
Bit depth                                : 24 bits
Compression mode                         : Lossy
Stream size                              : 1.23 GiB (24%)
Title                                    : Original- 5.1 @ 1509 kbps
Language                                 : English
Default                                  : No
Forced                                   : No

Text #1
ID                                       : 4
Format                                   : UTF-8
Codec ID                                 : S_TEXT/UTF8
Codec ID/Info                            : UTF-8 Plain Text
Duration                                 : 1 h 55 min
Bit rate                                 : 4 b/s
Count of elements                        : 93
Stream size                              : 3.99 KiB (0%)
Title                                    : Forced
Language                                 : Ukrainian
Default                                  : Yes
Forced                                   : Yes

Text #2
ID                                       : 5
Format                                   : UTF-8
Codec ID                                 : S_TEXT/UTF8
Codec ID/Info                            : UTF-8 Plain Text
Duration                                 : 1 h 46 min
Bit rate                                 : 59 b/s
Count of elements                        : 1517
Stream size                              : 46.8 KiB (0%)
Title                                    : Full
Language                                 : English
Default                                  : No
Forced                                   : No

Text #3
ID                                       : 6
Format                                   : UTF-8
Codec ID                                 : S_TEXT/UTF8
Codec ID/Info                            : UTF-8 Plain Text
Duration                                 : 1 h 46 min
Bit rate                                 : 68 b/s
Count of elements                        : 1828
Stream size                              : 53.5 KiB (0%)
Title                                    : SDH
Language                                 : English
Default                                  : No
Forced                                   : No

Text #4
ID                                       : 7
Format                                   : UTF-8
Codec ID                                 : S_TEXT/UTF8
Codec ID/Info                            : UTF-8 Plain Text
Duration                                 : 1 h 47 min
Bit rate                                 : 66 b/s
Count of elements                        : 1700
Stream size                              : 52.5 KiB (0%)
Title                                    : SDH-Colored
Language                                 : English
Default                                  : No
Forced                                   : No

Menu
00:00:00.000                             : en:00:00:00.000 / en:Глава 01
00:06:45.822                             : en:00:06:45.822
00:15:27.884                             : en:00:15:27.884
00:23:24.236                             : en:00:23:24.236
00:32:22.481                             : en:00:32:22.481
00:40:29.885                             : en:00:40:29.885
00:48:20.563                             : en:00:48:20.563
00:57:55.346                             : en:00:57:55.346
01:07:17.407                             : en:01:07:17.407
01:16:17.363                             : en:01:16:17.363
01:23:18.784                             : en:01:23:18.784
01:32:20.158                             : en:01:32:20.158
01:39:12.947                             : en:01:39:12.947
01:46:17.578                             : en:01:46:17.578
01:48:52.442                             : en:01:48:52.442
Світлини




Джерело: &
Особиста оцінка: 10 - без зайвих вагань рекомендую всім!


 Трекер:    Зареєстрований   

Завантажити / скачати фільм українською



відео для новачків



 Зареєстрований:   2019-07-11 15:16
 Розмір:   5.21 GB 
 Оцінка фільму:   9.8/10 (Голосів: 19)
   
Інші релізи
   Наркокур'єр / The Mule (2018) Remux 1080p Ukr/Eng | Sub Eng kryk-v.ya.  2 / 0   29.67 GB   2019-07-11 19:43 
   Наркокур'єр / The Mule (2018) 1080p Ukr/Eng | Sub Eng staf777  7 / 0   13.36 GB   2019-07-11 16:32 
   Наркокур'єр / The Mule (2018) AVC Ukr/Eng | Sub Eng 11FrYkT  11 / 0   2.11 GB   2019-07-11 08:01 
   Наркокур'єр / The Mule (2018) 720p Ukr/Eng | Sub Eng 11FrYkT  9 / 0   6.22 GB   2019-07-11 05:58 
   Наркокур'єр / The Mule (2018) ssTAss  27 / 4   1.44 GB   2019-04-28 00:58 
nuclear_revenge 
Новенький


З нами з: 21.11.16
Востаннє: 14.11.19
Повідомлень: 5

2019-06-09 12:58  
чудове кіно, дякую!
Anonymous 







2019-06-09 12:58  
nuclear_revenge
Будь ласка)

Anonymous 







2019-07-11 15:16  
Оновив першу доріжку на більш якісну.
ALF007 
Частий відвідувач


З нами з: 30.09.11
Востаннє: 30.11.19
Повідомлень: 36

2019-07-15 00:53  
За атмосферою нагадало фільм "Hell or High Water"
Ваш часовий пояс: GMT + 2 Години

Нова тема   Відповісти