Розкажи мені казку (Сезон 1) / Tell Me a Story (Season 1) (2018) 1080p Ukr/Eng | sub Eng

Нові коментарі

Нова тема   Відповісти
Автор Повідомлення
Anonymous 







2019-05-05 19:39  
Розкажи мені казку (Сезон 1) / Tell Me a Story (Season 1) (2018) 1080p Ukr/Eng | sub Eng

Розкажи мені казку (Сезон 1) / Tell Me a Story (Season 1) (2018) 1080p Ukr/Eng | sub Eng


Жанр: трилер
Країна: США



Кінокомпанія: Kapital Entertainment, Outerbanks Entertainment, Resonant TV, CBS
Режисер: Кевін Вільямсон (Kevin Williamson) та інші
Актори: Джеймс Волк (James Wolk), Біллі Магнуссен (Billy Magnussen), Данія Рамірес (Dania Ramirez), Деніел Кемпбелл (Danielle Campbell), Сем Джагер (Sam Jaeger) та інші

Сюжет:
"Розкажи мені казку" — сучасний кримінальний психологічний трилер, персонажі якого засновані на характерних героях відомих казок. У першому сезоні це: "Троє поросят", "Червона шапочка" та "Гензель і Гретель". Події відбуваються у Нью-Йорку, куди переїздить дівчина Кайла ("Червона шапочка"), де злочинці ("Троє поросят") грабують банк та намагаються втекти від помсти "Вовка", де брат і сестра ("Гензель і Гретель") потрапляють у моторошну халепу…


Тривалість: 1 серія: 42-52 хв. (цілком серій: 10)
Перелік серій
01) Chapter 1: Hope
02) Chapter 2: Loss
03) Chapter 3: Greed
04) Chapter 4: Rage
05) Chapter 5: Madness
06) Chapter 6: Guilt
07) Chapter 7: Betrayal
08) Chapter 8: Truth
09) Chapter 9: Deception
10) Chapter 10: Forgiveness
Якість:
Відео:
кодек:
розмір кадру: 1920 х 1080
бітрейт: ~6 мб/с

Аудіо # 1:
мова: українська
переклад: багатоголосий закадровий | DniproFilm
кодек: 5.1
бітрейт: 384 кб/с
Підтримати українське озвучення
Для студії дуже важлива популярність, від цього залежить кількість замовлень українського озвучення у студії та й саме її існування. Підписуйтесь на телеграм-канал студії та дивиться/завантажуйте нові релізи на майданчиках, куди викладає сама студія.

Аудіо # 2:
мова: англійська
переклад: оригінал
кодек: E- 5.1
бітрейт: 640 кб/с

Субтитри:
мова: англійська
тип: програмні (м'які)
формат: *.srt
Info
General
Unique ID : 52613400525834656807338263549751137056 (0x2794F8EC3FC1B325583CA38B739D1320)
Complete name : E:\Support\Tell Me a Story (Season 1) [, 1080p, Ukr, Eng]\Tell Me a Story. s01e01. Hope.
Format :
Format version : Version 4
File size : 2.86 GiB
Duration : 50 min 55 s
Overall bit rate : 8 031 kb/s
Encoded date : UTC 2019-05-05 11:43:02
Writing application : v33.1.0 ('Primrose') 64-bit
Writing library : libebml v1.3.7 + v1.5.0

Video
ID : 1
Format : AVC
Format/Info : Advanced Video Codec
Format profile : [email protected]
Format settings : CABAC / 4 Ref Frames
Format settings, CABAC : Yes
Format settings, ReFrames : 4 frames
Codec ID : V_MPEG4/ISO/AVC
Duration : 50 min 55 s
Bit rate : 7 005 kb/s
Width : 1 920 pixels
Height : 1 080 pixels
Display aspect ratio : 16:9
Frame rate mode : Constant
Frame rate : 24.000 FPS
Color space : YUV
Chroma subsampling : 4:2:0
Bit depth : 8 bits
Scan type : Progressive
Bits/(Pixel*Frame) : 0.141
Stream size : 2.49 GiB (87%)
Default : Yes
Forced : No
Color range : Limited
Color primaries : BT.709
Transfer characteristics : BT.709
Matrix coefficients : BT.709

Audio #1
ID : 2
Format : AC-3
Format/Info : Audio Coding 3
Commercial name : Dolby Digital
Codec ID : A_AC3
Duration : 50 min 54 s
Bit rate mode : Constant
Bit rate : 384 kb/s
Channel(s) : 6 channels
Channel layout : L R C LFE Ls Rs
Sampling rate : 48.0 kHz
Frame rate : 31.250 FPS (1536 SPF)
Bit depth : 16 bits
Compression mode : Lossy
Stream size : 140 MiB (5%)
Title : DniproFilm
Language : Ukrainian
Service kind : Complete Main
Default : Yes
Forced : No

Audio #2
ID : 3
Format : E-AC-3
Format/Info : Enhanced AC-3
Commercial name : Dolby Digital Plus
Codec ID : A_EAC3
Duration : 50 min 55 s
Bit rate mode : Constant
Bit rate : 640 kb/s
Channel(s) : 6 channels
Channel layout : L R C LFE Ls Rs
Sampling rate : 48.0 kHz
Frame rate : 31.250 FPS (1536 SPF)
Compression mode : Lossy
Stream size : 233 MiB (8%)
Language : English
Service kind : Complete Main
Default : No
Forced : No

Text
ID : 4
Format : UTF-8
Codec ID : S_TEXT/UTF8
Codec ID/Info : UTF-8 Plain Text
Duration : 49 min 19 s
Bit rate : 59 b/s
Count of elements : 782
Stream size : 21.6 KiB (0%)
Language : English
Default : No
Forced : No
Скріншоти
Реліз без реклами


Джерело: &
Особиста оцінка: 8 - мені сподобалося



Авторський реліз (завантажувати можна без реєстрації)
 Трекер:    Зареєстрований   

Завантажити / скачати серіал українською



відео для новачків



 Зареєстрований:   2019-05-05 19:39
 Розмір:   22.8 GB 
 Оцінка серіалу:   10/10 (Голосів: 2)
   
Ваш часовий пояс: GMT + 2 Години

Нова тема   Відповісти