Самогонщики (2008)

Нові коментарі

Нова тема   Відповісти
Автор Повідомлення
surikmas 
Новенький


З нами з: 26.03.19
Востаннє: 15.09.19
Повідомлень: 14

2019-05-04 11:51  
Самогонщики (2008)

Самогонщики (2008)


Жанр: документальний
Країна: Україна

Телеканал / кіностудія: Продюсерський центр "Закрита зона"
Режисер: Сергій Цимбал
Актори: Наталія Фіцич ...

Сюжет:
Фільм розповідає про традиції самогоноваріння в Україні.


Тривалість: 00:26:19
Якість:
Відео:
кодек:
розмір кадру: 656 x 368
бітрейт: 1868 кб/с

Аудіо:
мова: українська
переклад: оригінал
кодек: 2.0
бітрейт: 192 кб/с
"Info"
General
Complete name : D:\Відкрита зона - Самогонщики_DVDRip by ExKinoRay & Shkiper.avi
Format : AVI
Format/Info : Audio Video Interleave
File size : 390 MiB
Duration : 26 min 19 s
Overall bit rate : 2 070 kb/s
Writing application : VirtualDubMod 1.5.10.3 | www.virtualdub-fr.org || (build 2550/release)
Writing library : VirtualDubMod build 2550/release

Video
ID : 0
Format : MPEG-4 Visual
Format profile : Advanced [email protected]
Format settings : BVOP1 / Custom Matrix
Format settings, BVOP : 1
Format settings, QPel : No
Format settings, GMC : No warppoints
Format settings, Matrix : Custom
Codec ID :
Codec ID/Hint :
Duration : 26 min 19 s
Bit rate : 1 868 kb/s
Width : 656 pixels
Height : 368 pixels
Display aspect ratio : 16:9
Frame rate : 25.000 FPS
Color space : YUV
Chroma subsampling : 4:2:0
Bit depth : 8 bits
Scan type : Progressive
Compression mode : Lossy
Bits/(Pixel*Frame) : 0.310
Stream size : 352 MiB (90%)
Writing library : 73

Audio
ID : 1
Format : AC-3
Format/Info : Audio Coding 3
Commercial name : Dolby Digital
Codec ID : 2000
Duration : 26 min 19 s
Bit rate mode : Constant
Bit rate : 192 kb/s
Channel(s) : 2 channels
Channel layout : L R
Sampling rate : 48.0 kHz
Frame rate : 31.250 FPS (1536 SPF)
Bit depth : 16 bits
Compression mode : Lossy
Delay relative to video : 8 ms
Stream size : 36.1 MiB (9%)
Alignment : Split accross interleaves
Interleave, duration : 40 ms (1.00 video frame)
Interleave, preload duratio : 500 ms
Service kind : Complete Main
Скріншоти
Джерело:
Особиста оцінка: 10 - без зайвих вагань рекомендую всім!


 Трекер:    Зареєстрований   

Завантажити / скачати фільм українською



відео для новачків



 Зареєстрований:   2019-05-04 11:51
 Розмір:   390 MB 
 Оцінка фільму:   6/10 (Голосів: 3)
   
Ваш часовий пояс: GMT + 2 Години

Нова тема   Відповісти