Повсталий з пекла 2: Пекельні пута / Hellbound: Hellraiser II (1988) Remux 1080p Ukr/Eng | Sub Ukr/Eng

Нові коментарі

Нова тема   Відповісти
Останній раз роздавалося MakRA (2020-09-28)
Автор Повідомлення
MakRA 
VIP


З нами з: 11.11.18
Востаннє: 28.09.20
Повідомлень: 1120

2019-05-04 11:33  
Повсталий з пекла 2: Пекельні пута / Hellbound: Hellraiser II (1988) Remux 1080p Ukr/Eng | Sub Ukr/Eng

Повсталий з пекла 2: Пекельні пута / Hellbound: Hellraiser II (1988) Remux 1080p Ukr/Eng | Sub Ukr/Eng


Жанр: жахи, трилер
Країна: США, Велика Британія



Кінокомпанія: Film Futures, New World Pictures, Troopstar
Режисер: Тоні Рендел [Tony Randel]
Актори: Ешлі Лоуренс [Ashley Laurence], Імоджен Бурман [Imogen Boorman], Кеннет Кренем [Kenneth Cranham], Вільям Хоуп [William Hope], Даг Бредлі [Doug Bradley], Клер Хіггінс [Clare Higgins], Дебора Джоель [Deborah Joel], Енгус МакІннес [Angus MacInnes], Олівер Сміт [Oliver Smith], Шон Чепман [Sean Chapman], Барбі Вайлд [Barbie Wilde], Саймон Бемфорд [Simon Bamford], Ніколас Вінс [Nicholas Vince], Бредлі Левелл [Bradley Lavelle], Джеймс Тайлітт [], Едвін Крейг [Edwin Craig], Рон Тревіс [Ron Travis], Олівер Паркер [Oliver Parker], Катрін Шевальє [Catherine Chevalier].

Сюжет:
У наш світ повертається мачуха Крісті — Джулія, яка потрапила в пекло у фіналі першої частини фільму. Для відновлення свого фізичного вигляду їй доводиться поїдати людську плоть. В цей же час Крістіна, що міститься в психіатричній лікарні, вирішує врятувати свого батька з потойбічної неволі, для чого їй знову необхідно проникнути за ту не завжди видиму й не завжди міцну грань, яка відділяє світ живих від світу не надто живих.

Цікаве про фільм:

-Актор Ендрю Робінсон, який зіграв у першій частині Ларрі Коттона, з фінансових міркувань відмовився зніматися в другій, через що первісний сценарій фільму довелося переробляти.
-В оригінальному сценарії доктора Кеннард звали Малахайд. Прізвище Кеннард було обране виходячи зі співзвуччя з ім'ям хірурга Крістіана Бернарда, який першим у світі провів успішну пересадку серця.
-Повторюваний звук, який видає Левіафан у світі сенобітів — це слово «бог», зашифроване телеграфним кодом Морзе.


Тривалість: 01:39:01
Якість: Remux 1080p
Відео:
кодек:
розмір кадру: 1920 х 1080
бітрейт: 35 Мб/с

Аудіо # 1:
мова: українська
переклад: багатоголосий закадровий | Студія "Антигламур"
кодек: 2.0
бітрейт: 192 кб/с
Над перекладом працювали:

Переклад: з ліцензійного DVD (Євген Макаревич), редагування w2958l
Озвучка: Василь Ніжний, Максим Омельченко, Василь Ніжний-старший, Людмила Швець
Зведення: Максим Омельченко.
Аудіо # 2:
мова: англійська
переклад: оригінал
кодек: -HD MA 5.1
бітрейт: 2788 кб/с

Субтитри # 1:
мова: українська
тип: програмні (м'які)
формат: *.srt

Субтитри # 2:
мова: англійська
тип: програмні (м'які)
формат: *.srt

Збережено оригінальні розділи, як на Blu-ray.
Info
General
Unique ID : 7633641536822738895393892855464349993 (0x5BE2F95F74744CB2802C53607605129)
Complete name : F:\Жахи, психологічні\Hellraiser. Collection\Hellraiser 2 Hellbound (1988) Remux 1080p UkrEng Sub UkrEng [Hurtom].
Format :
Format version : Version 4 / Version 2
File size : 26.1 GiB
Duration : 1 h 39 min
Overall bit rate mode : Variable
Overall bit rate : 37.8 Mb/s
Movie name : Повсталий з пекла 2: Пекельні пута / Hellraiser 2: Hellbound (1988) Remux 1080p Ukr/Eng | Sub Ukr/Eng [Hurtom]
Encoded date : UTC 2019-05-02 06:27:07
Writing application : v25.0.0 ('Prog Noir') 64-bit
Writing library : libebml v1.3.6 + v1.4.9
Cover : Yes
Attachments : cover.jpg / xlog.txt

Video
ID : 1
Format : AVC
Format/Info : Advanced Video Codec
Format profile : [email protected]
Format settings, CABAC : Yes
Format settings, RefFrames : 3 frames
Codec ID : V_MPEG4/ISO/AVC
Duration : 1 h 39 min
Bit rate mode : Variable
Bit rate : 35.0 Mb/s
Maximum bit rate : 36.0 Mb/s
Width : 1 920 pixels
Height : 1 080 pixels
Display aspect ratio : 16:9
Frame rate mode : Constant
Frame rate : 23.976 (24000/1001) FPS
Color space : YUV
Chroma subsampling : 4:2:0
Bit depth : 8 bits
Scan type : Progressive
Bits/(Pixel*Frame) : 0.704
Stream size : 24.1 GiB (92%)
Title : Hellraiser 2: Hellbound (1988) Remux 1080p Ukr/Eng | Sub Ukr/Eng [Hurtom]
Writing library : core 128 r2216 198a7ea
Encoding settings : cabac=1 / ref=4 / deblock=0:-1:-1 / analyse=0x3:0x133 / me=umh / subme=10 / psy=1 / psy_rd=1.00:0.15 / mixed_ref=1 / me_range=24 / chroma_me=1 / trellis=2 / 8x8dct=1 / cqm=0 / deadzone=21,11 / fast_pskip=1 / chroma_qp_offset=-3 / threads=12 / lookahead_threads=2 / sliced_threads=0 / slices=4 / nr=0 / decimate=1 / interlaced=0 / bluray_compat=1 / constrained_intra=0 / bframes=3 / b_pyramid=1 / b_adapt=2 / b_bias=0 / direct=3 / weightb=1 / open_gop=1 / weightp=1 / keyint=24 / keyint_min=1 / scenecut=40 / intra_refresh=0 / rc_lookahead=24 / rc=2pass / mbtree=0 / bitrate=35000 / ratetol=1.0 / qcomp=0.00 / qpmin=0 / qpmax=69 / qpstep=4 / cplxblur=20.0 / qblur=0.5 / vbv_maxrate=36000 / vbv_bufsize=30000 / nal_hrd=vbr / ip_ratio=1.40 / pb_ratio=1.30 / aq=1:0.40
Language : Ukrainian
Default : Yes
Forced : Yes
Color range : Limited
Color primaries : BT.709
Transfer characteristics : BT.709
Matrix coefficients : BT.709

Audio #1
ID : 2
Format : AC-3
Format/Info : Audio Coding 3
Format settings, Endianness : Big
Codec ID : A_AC3
Duration : 1 h 39 min
Bit rate mode : Constant
Bit rate : 192 kb/s
Channel(s) : 2 channels
Channel positions : Front: L R
Sampling rate : 48.0 kHz
Frame rate : 31.250 FPS (1536 SPF)
Bit depth : 16 bits
Compression mode : Lossy
Stream size : 136 MiB (1%)
Title : MVO [Студія "Антигламур"]
Language : Ukrainian
Service kind : Complete Main
Default : Yes
Forced : Yes

Audio #2
ID : 3
Format :
Format/Info : Digital Theater Systems
Format profile : MA / Core
Mode : 16
Format settings, Endianness : Big
Codec ID : A_DTS
Duration : 1 h 39 min
Bit rate mode : Variable / Constant
Bit rate : 2 788 kb/s / 1 509 kb/s
Channel(s) : 6 channels
Channel positions : Front: L C R, Side: L R, LFE
Sampling rate : 48.0 kHz
Frame rate : 93.750 FPS (512 SPF)
Bit depth : 24 bits
Compression mode : Lossless / Lossy
Stream size : 1.93 GiB (7%)
Title : English
Language : English
Default : No
Forced : No

Text #1
ID : 4
Format : UTF-8
Codec ID : S_TEXT/UTF8
Codec ID/Info : UTF-8 Plain Text
Duration : 1 h 35 min
Bit rate : 29 b/s
Count of elements : 539
Stream size : 20.9 KiB (0%)
Title : Ukr
Language : Ukrainian
Default : No
Forced : No

Text #2
ID : 5
Format : UTF-8
Codec ID : S_TEXT/UTF8
Codec ID/Info : UTF-8 Plain Text
Duration : 1 h 35 min
Bit rate : 18 b/s
Count of elements : 514
Stream size : 13.0 KiB (0%)
Title : Eng
Language : English
Default : No
Forced : No

Menu #1
00:00:00.000 : en:00:00:00.000
00:09:40.163 : en:00:09:40.163
00:17:44.021 : en:00:17:44.021
00:24:02.191 : en:00:24:02.191
00:34:12.884 : en:00:34:12.884
00:42:40.558 : en:00:42:40.558
00:48:56.350 : en:00:48:56.350
01:00:13.360 : en:01:00:13.360
01:05:19.332 : en:01:05:19.332
01:17:31.689 : en:01:17:31.689
01:24:42.035 : en:01:24:42.035
01:33:01.493 : en:01:33:01.493

Menu #2
00:00:00.000 : en:Chapter 1
00:03:31.293 : en:Chapter 2
00:13:42.738 : en:Chapter 3
00:24:04.192 : en:Chapter 4
00:34:14.886 : en:Chapter 5
00:45:09.415 : en:Chapter 6
00:54:38.233 : en:Chapter 7
01:05:21.667 : en:Chapter 8
01:16:02.683 : en:Chapter 9
01:24:20.055 : en:Chapter 10
01:36:10.055 : en:Chapter 11
Скріншоти
Джерело: &
Особиста оцінка: 10 - без зайвих вагань рекомендую всім!




Золотий реліз (завантажене не впливає на рейтинг)
 Трекер:    Зареєстрований   

Завантажити / скачати фільм українською



відео для новачків



 Зареєстрований:   2019-05-05 17:41
 Розмір:   26.13 GB 
 Оцінка фільму:   10/10 (Голосів: 4)
   
MakRA 
VIP


З нами з: 11.11.18
Востаннє: 28.09.20
Повідомлень: 1120

2019-05-05 17:45  
Торрент-файл оновлено. Виправлено незначний розсинхрон. Прохання перезавантажити!
Al_Kova 
Новенький


З нами з: 05.04.14
Востаннє: 27.09.20
Повідомлень: 8

2020-02-25 17:29  
Є хто живий на роздачі?
Другий день вже стоїть на 60.2%.

MakRA 
VIP


З нами з: 11.11.18
Востаннє: 28.09.20
Повідомлень: 1120

2020-02-25 19:29  
Al_Kova
Та ніби нікуди не зникаю)

Al_Kova 
Новенький


З нами з: 05.04.14
Востаннє: 27.09.20
Повідомлень: 8

2020-02-26 22:51  
Шось дивина якась.

60.2% було кілька днів. Спробував перезавантажити наново, але qBittorent каже "заглох", хоч і бачить одного сідера. При чому, перша частина, хоч і доволі довго завантажувалась, але все добре. А тут чогось сенобіти не дають насолодитись)

Mr.Mykhailo 
Новенький


З нами з: 19.06.19
Востаннє: 19.09.20
Повідомлень: 5

2020-02-27 12:03  
Al_Kova
Став на роздачу.

Ваш часовий пояс: GMT + 2 Години

Нова тема   Відповісти