Рембрандт / Rembrandt (2003) Ukr/Dan | Sub Eng/Swe

Нові коментарі

Нова тема   Відповісти
Автор Повідомлення
Arch Enemy 
VIP


З нами з: 30.08.12
Востаннє: 25.08.19
Повідомлень: 1692

2019-05-03 21:20  
Рембрандт / Rembrandt (2003) Ukr/Dan | Sub Eng/Swe


Жанр: Бойовик, кримінал, комедія, драма
Країна: Данія



Кінокомпанія: Fine & Mellow Productions, Ugly Duckling Films, Danmarks Radio (DR)
Режисер: Яннік Йохансен
Актори: Якоб Цедерґрен, Ніколай Костер Валдау, Соня Ріхтер, Сорен Пілмарк, Ґордон Кеннеді, Томас В. Ґабріельссон, Ларс Бріґманн, Ніколас Бро та інші.

Сюжет:
Мік і його син Том - сім'я дрібних злочинців. Але зараз в них з'явилася більш важлива справа. Їх попросили вкрасти картину з музею. Операція минула успішно, тільки от вкрали вони не зовсім те, що потрібно.
В їхніх руках опинилася унікальна річ - єдина в Данії картина Рембрандта вартістю в мільйони крон, але, яку, на жаль, майже неможливо продати. Що ж робити нещасним крадіям, яких переслідують Інтерпол, данська поліція і весь кримінальний світ?..


Тривалість: 01:43:29
Якість:

Відео:
кодек:
розмір кадру: 720x576 (1024x576)
бітрейт: 1 332 кбіт/сек.
контейнер:

Аудіо # 1:
мова: українська
озвучення: багатоголосе закадрове
кодек: Vorbis 2.0
бітрейт: 160 кбіт/сек.

Аудіо # 2:
мова: данська
озвучення: оригінал
кодек: Vorbis 2.0
бітрейт: 160 кбіт/сек.

Субтитри # 1:
мова: англійська
тип: програмні (м'які)
формат: SRT

Субтитри # 2:
мова: шведська
тип: програмні (м'які)
формат: SRT
Info
General
Unique ID : 218351361267810149834494396164548221008 (0xA444F148186EA42A1080B932BF1E5850)
Complete name : E:\Films\Rembrandt [2003].
Format :
Format version : Version 4 / Version 2
File size : 1.15 GiB
Duration : 1 h 43 min
Overall bit rate mode : Variable
Overall bit rate : 1 589 kb/s
Movie name : Рембрандт / Rembrandt (2003)
Encoded date : UTC 2019-05-03 17:27:36
Writing application : v26.0.0 ('In The Game') 64-bit
Writing library : libebml v1.3.6 + v1.4.9

Video
ID : 1
Format : MPEG-4 Visual
Format profile : Advanced [email protected]
Format settings : BVOP2
Format settings, BVOP : 2
Format settings, QPel : No
Format settings, GMC : No warppoints
Format settings, Matrix : Default (H.263)
Codec ID : V_MS/VFW/FOURCC /
Codec ID/Hint :
Duration : 1 h 43 min
Bit rate : 1 332 kb/s
Width : 720 pixels
Height : 576 pixels
Display aspect ratio : 16:9
Frame rate mode : Constant
Frame rate : 25.000 FPS
Standard : PAL
Color space : YUV
Chroma subsampling : 4:2:0
Bit depth : 8 bits
Scan type : Progressive
Compression mode : Lossy
Bits/(Pixel*Frame) : 0.128
Stream size : 986 MiB (84%)
Title : Rembrandt (2003)
Writing library : 64
Language : Danish
Default : Yes
Forced : Yes

Audio #1
ID : 2
Format : Vorbis
Format settings, Floor : 1
Codec ID : A_VORBIS
Duration : 1 h 43 min
Bit rate mode : Variable
Bit rate : 160 kb/s
Channel(s) : 2 channels
Sampling rate : 48.0 kHz
Frame rate : 74.451 FPS (645 SPF)
Compression mode : Lossy
Stream size : 94.3 MiB (8%)
Title : AniUA MVO
Writing application : REAPER
Writing library : libVorbis (Now 100% fewer shells) (20180316 (Now 100% fewer shells))
Language : Ukrainian
Default : Yes
Forced : Yes

Audio #2
ID : 3
Format : Vorbis
Format settings, Floor : 1
Codec ID : A_VORBIS
Duration : 1 h 43 min
Bit rate mode : Variable
Bit rate : 160 kb/s
Channel(s) : 2 channels
Sampling rate : 48.0 kHz
Frame rate : 68.504 FPS (701 SPF)
Compression mode : Lossy
Stream size : 92.7 MiB (8%)
Title : Original
Writing library : libVorbis (Schaufenugget) (20101101 (Schaufenugget))
Language : Danish
Default : No
Forced : No

Text #1
ID : 4
Format : UTF-8
Codec ID : S_TEXT/UTF8
Codec ID/Info : UTF-8 Plain Text
Duration : 1 h 37 min
Bit rate : 43 b/s
Count of elements : 862
Stream size : 31.1 KiB (0%)
Title : Eng
Language : English
Default : No
Forced : No

Text #2
ID : 5
Format : UTF-8
Codec ID : S_TEXT/UTF8
Codec ID/Info : UTF-8 Plain Text
Duration : 1 h 37 min
Bit rate : 50 b/s
Count of elements : 876
Stream size : 35.7 KiB (0%)
Title : Swe
Language : Swedish
Default : No
Forced : No

Menu
00:00:00.000 : en:Chapter 01
00:07:39.120 : en:Chapter 02
00:15:51.920 : en:Chapter 03
00:25:39.760 : en:Chapter 04
00:33:41.960 : en:Chapter 05
00:43:08.000 : en:Chapter 06
00:52:33.920 : en:Chapter 07
01:04:26.080 : en:Chapter 08
01:11:10.120 : en:Chapter 09
01:20:00.120 : en:Chapter 10
01:29:08.800 : en:Chapter 11
01:39:54.600 : en:Chapter 12
01:43:28.440 : en:Chapter 13
Скріншоти 720х576 (оригінал)

Скріншоти 1024х576 (анаморф)

Озвучено за фінансової підтримки NemoInFire


Джерело озвучення та релізу: AniUA


Авторський реліз (завантажувати можна без реєстрації)
 Трекер:    Зареєстрований   

Завантажити / скачати фільм українською



відео для новачків



 Зареєстрований:   2019-05-03 21:20
 Розмір:   1.15 GB 
 Оцінка фільму:   9.5/10 (Голосів: 6)
   
11FrYkT 
Модератор відео


З нами з: 20.02.11
Востаннє: 25.08.19
Повідомлень: 6142

2019-05-05 10:52  
Arch Enemy написано:
1024x576

замініть або додайте ще такі скріни

Arch Enemy 
VIP


З нами з: 30.08.12
Востаннє: 25.08.19
Повідомлень: 1692

2019-05-05 17:29  
11FrYkT написано:
замініть або додайте ще такі скріни

додав.

Ваш часовий пояс: GMT + 2 Години

Нова тема   Відповісти