Лего. Фільм 2 / The Lego Movie 2: The Second Part (2019) Remux 1080p Ukr/Eng | Sub Eng

Нові коментарі

Нова тема   Відповісти
Автор Повідомлення
Argentum 
VIP


З нами з: 25.09.11
Востаннє: 05.12.20
Повідомлень: 263

2019-05-03 18:40  
Лего. Фільм 2 / The Lego Movie 2: The Second Part (2019) Remux 1080p Ukr/Eng | Sub Eng

Лего. Фільм 2 / The Lego Movie 2: The Second Part (2019) Remux 1080p Ukr/Eng | Sub Eng


Жанр: анімація, пригодницький, комедія, фантастика
Країна: Данія, Норвегія, Австралія, США



Кінокомпанія: Warner Bros., Warner Animation Group, LEGO System
Режисер: Майк Мітчел
Актори: Кріс Претт, Елізабет Бенкс, Вілл Арнетт, Тіффані Хеддіш, Стефані Беатріз, Елісон Брі, Нік Офферман, Чарлі Дей, Майя Рудольф, Вілл Феррелл та інші.

Сюжет:
«Lego Фільм 2» об’єднує усіх героїв у новій пригоді, місія якої – порятунок рідного міста Бріксбурга. Боротьба за перемогу і відновлення гармонії у всесвіті LEGO занесе Еммета, Люсі, Бетмена та їхніх друзів не лише у далекі й нерозвідані світи, а й у загадкову музичну галактику!


Тривалість: 01:47:09
Якість: Remux
Відео:
кодек:
розмір кадру: 1920 х 1080
бітрейт: 21.8 Мб/с

Аудіо # 1:
мова: українська
переклад: професійний дубльований | студія Postmodern
кодек: 5.1
бітрейт: 384 кб/с
Інформація про дубляж
Переклад: Роман Кисельов
Режисер дубляжу: Катерина Брайковська
Звукорежисер: Олександр Мостовенко
Звукорежисер перезапису: Юрій Антонов та Максим Корнелюк
Музичний редактор: Тетяна Піроженко
Ролі дублювали: Іван Розін, Наталя Романько-Кисельова, Андрій Твердак, Анна Соболєва, Світлана Шекера, Дмитро Завадський, Катерина Брайковська, Кирило Нікітенко та інші.
Аудіо # 2:
мова: англійська
переклад: оригінал
кодек: 5.1
бітрейт: 1509 кб/с

Субтитри: (форсовані)
мова: українська
тип: програмні (м'які)
формат: *.srt

Субтитри:
мова: англійська
тип: програмні (м'які)
формат: *.srt
Info
General
Unique ID : 275229056700853255857503424649207970287 (0xCF0F302CFE9BC84A7F1A11450F5B79EF)
Complete name : /home/dim/Videos/My/Lego/The Lego Movie 2 The Second Part (2019) [Ukr, Eng] Remux 1080p [Hurtom].
Format :
Format version : Version 4
File size : 17.7 GiB
Duration : 1 h 47 min
Overall bit rate mode : Variable
Overall bit rate : 23.7 Mb/s
Movie name : The Lego Movie 2 The Second Part (2019) [Ukr, Eng] Remux 1080p [Hurtom]
Encoded date : UTC 2019-09-14 18:57:21
Writing application : v37.0.0 ('Leave It') 64-bit
Writing library : libebml v1.3.9 + v1.5.2
Cover : Yes
Attachments : cover.jpg

Video
ID : 1
Format : AVC
Format/Info : Advanced Video Codec
Format profile : [email protected]
Format settings : CABAC / 4 Ref Frames
Format settings, CABAC : Yes
Format settings, Reference frames : 4 frames
Codec ID : V_MPEG4/ISO/AVC
Duration : 1 h 47 min
Bit rate mode : Variable
Bit rate : 21.8 Mb/s
Maximum bit rate : 31.0 Mb/s
Width : 1 920 pixels
Height : 1 080 pixels
Display aspect ratio : 16:9
Frame rate mode : Constant
Frame rate : 23.976 (24000/1001) FPS
Color space : YUV
Chroma subsampling : 4:2:0
Bit depth : 8 bits
Scan type : Progressive
Bits/(Pixel*Frame) : 0.438
Stream size : 16.3 GiB (92%)
Title : AVC 1920*1080 @ 21.8 Mb/s
Language : Multiple languages
Default : Yes
Forced : Yes

Audio #1
ID : 2
Format : AC-3
Format/Info : Audio Coding 3
Commercial name : Dolby Digital
Codec ID : A_AC3
Duration : 1 h 47 min
Bit rate mode : Constant
Bit rate : 384 kb/s
Channel(s) : 6 channels
Channel layout : L R C LFE Ls Rs
Sampling rate : 48.0 kHz
Frame rate : 31.250 FPS (1536 SPF)
Bit depth : 16 bits
Compression mode : Lossy
Stream size : 294 MiB (2%)
Title : AC-3 5.1 @ 384 kb/s
Language : Ukrainian
Service kind : Complete Main
Default : Yes
Forced : Yes

Audio #2
ID : 3
Format :
Format/Info : Digital Theater Systems
Codec ID : A_DTS
Duration : 1 h 47 min
Bit rate mode : Constant
Bit rate : 1 509 kb/s
Channel(s) : 6 channels
Channel layout : C L R Ls Rs LFE
Sampling rate : 48.0 kHz
Frame rate : 93.750 FPS (512 SPF)
Bit depth : 24 bits
Compression mode : Lossy
Stream size : 1.13 GiB (6%)
Title : 5.1 @ 1 509 kb/s
Language : English
Default : No
Forced : No

Text #1
ID : 4
Format : UTF-8
Codec ID : S_TEXT/UTF8
Codec ID/Info : UTF-8 Plain Text
Duration : 1 h 32 min
Bit rate : 5 b/s
Count of elements : 40
Stream size : 3.73 KiB (0%)
Title : Forced
Language : Ukrainian
Default : Yes
Forced : Yes

Text #2
ID : 5
Format : UTF-8
Codec ID : S_TEXT/UTF8
Codec ID/Info : UTF-8 Plain Text
Duration : 1 h 46 min
Bit rate : 90 b/s
Count of elements : 2151
Stream size : 70.2 KiB (0%)
Title : Full
Language : English
Default : No
Forced : No

Menu
00:00:00.000 : en:Chapter 01
00:04:15.880 : en:Chapter 02
00:12:35.045 : en:Chapter 03
00:15:09.950 : en:Chapter 04
00:21:57.733 : en:Chapter 05
00:29:50.330 : en:Chapter 06
00:36:22.388 : en:Chapter 07
00:44:47.976 : en:Chapter 08
00:50:50.505 : en:Chapter 09
00:57:05.255 : en:Chapter 10
01:01:07.163 : en:Chapter 11
01:09:48.350 : en:Chapter 12
01:17:31.938 : en:Chapter 13
01:21:58.121 : en:Chapter 14
01:26:49.537 : en:Chapter 15
01:34:06.265 : en:Chapter 16
01:38:31.530 : en:Chapter 17
Скріншоти







Джерело:
Особиста оцінка: 8 - мені сподобалося


Золотий реліз (завантажене не впливає на рейтинг)
 Трекер:    Зареєстрований   

Завантажити / скачати мультфільм українською



відео для новачків



 Зареєстрований:   2019-09-14 21:18
 Розмір:   17.73 GB 
 Оцінка мультфільму:   9.6/10 (Голосів: 9)
   
bot 
робот


З нами з: 30.09.07
Востаннє: 26.05.05
Повідомлень: 26467

2019-05-04 11:19  
Тему перенесено з Анонси релізів до форуму Мультфільми в HD


Argentum

Argentum 
VIP


З нами з: 25.09.11
Востаннє: 05.12.20
Повідомлень: 263

2019-09-14 21:21  
Оновив українську аудіодоріжку на AC-3 5.1 @ 384 кб/с. Прохання перезавантажити торрент!

Ваш часовий пояс: GMT + 2 Години

Нова тема   Відповісти