Лего. Фільм 2 / The Lego Movie 2: The Second Part (2019) 1080p H.265 Ukr/Eng | Sub Eng

Нові коментарі

Нова тема   Відповісти
Автор Повідомлення
Anonymous 







2019-05-03 09:59  
Лего. Фільм 2 / The Lego Movie 2: The Second Part (2019) 1080p H.265 Ukr/Eng | Sub Eng

Лего. Фільм 2 / The Lego Movie 2: The Second Part (2019) 1080p H.265 Ukr/Eng | Sub Eng


Жанр: бойовик, комедія, мультфільм, мюзикл, пригодницький, сімейний, фентезі
Країна: Данія, Норвегія, Австралія, США
Кінокомпанія: Warner Bros., Warner Animation Group, LEGO System A/S
Режисер: Майк Мітчел
Актори: Кріс Претт, Елізабет Бенкс, Вілл Арнетт, Тіффані Хеддіш, Стефані Беатріз, Елісон Брі, Нік Офферман, Чарлі Дей, Майя Рудольф, Вілл Феррелл

Сюжет:
«Lego Фільм 2» об’єднує усіх героїв у новій пригоді, місія якої – порятунок рідного міста Бріксбурга. Боротьба за перемогу і відновлення гармонії у всесвіті LEGO занесе Еммета, Люсі, Бетмена та їхніх друзів не лише у далекі й нерозвідані світи, а й у загадкову музичну галактику!

Тривалість: 01:47:09
Якість:

Відео:
кодек: H.265 (HEVC)
розмір кадру: 1920 x 800
бітрейт: 6 962 кб/с
бітова глибина: 10 біт

Увага! Перед завантаженням переконайтесь, що ваш пристрій відтворення (та/або ПЗ) підтримує H.265 (HEVC)

Аудіо # 1:
мова: українська
переклад: професійний дубльований
кодек: AC-3 5.1
бітрейт: 384 кб/с

Аудіо # 2:
мова: англійська
переклад: оригінал
кодек: 5.1
бітрейт: 1510 кб/с

Субтитри # 1: (Forced)
мова: українська
тип: програмні (м'які)
формат: *.srt

Субтитри # 2: (Full)
мова: англійська
тип: програмні (м'які)
формат: *.srt


Info
Код:
General
Unique ID                                : 206773225622321854483238073659234984047 (0x9B8F131F09CD96B15F6DBEAB9D80206F)
Complete name                            : The Lego Movie 2. The Second Part (2019) 1080p H.265 [UKR_ENG] [Hurtom].
Format                                   :
Format version                           : Version 4
File size                                : 6.63 GiB
Duration                                 : 1 h 47 min
Overall bit rate                         : 8 858 kb/s
Movie name                               : Лего. Фільм 2 / The Lego Movie 2: The Second Part (2019)
Encoded date                             : UTC 2019-09-15 08:04:05
Writing application                      : v20.0.0 ('I Am The Sun') 64-bit
Writing library                          : libebml v1.3.5 + v1.4.8
Cover                                    : Yes
Attachments                              : cover.jpg

Video
ID                                       : 1
Format                                   : HEVC
Format/Info                              : High Efficiency Video Coding
Format profile                           : Main [email protected]@High
Codec ID                                 : V_MPEGH/ISO/HEVC
Duration                                 : 1 h 47 min
Bit rate                                 : 6 962 kb/s
Width                                    : 1 920 pixels
Height                                   : 800 pixels
Display aspect ratio                     : 2.40:1
Frame rate mode                          : Constant
Frame rate                               : 23.976 (24000/1001) FPS
Color space                              : YUV
Chroma subsampling                       : 4:2:0
Bit depth                                : 10 bits
Bits/(Pixel*Frame)                       : 0.189
Stream size                              : 5.21 GiB (79%)
Title                                    : Лего. Фільм 2 / The Lego Movie 2: The Second Part (2019)
Language                                 : English
Default                                  : Yes
Forced                                   : No
Color range                              : Limited
Color primaries                          : BT.709
Transfer characteristics                 : BT.709
Matrix coefficients                      : BT.709

Audio #1
ID                                       : 2
Format                                   : AC-3
Format/Info                              : Audio Coding 3
Commercial name                          : Dolby Digital
Codec ID                                 : A_AC3
Duration                                 : 1 h 47 min
Bit rate mode                            : Constant
Bit rate                                 : 384 kb/s
Channel(s)                               : 6 channels
Channel layout                           : L R C LFE Ls Rs
Sampling rate                            : 48.0 kHz
Frame rate                               : 31.250 FPS (1536 SPF)
Bit depth                                : 16 bits
Compression mode                         : Lossy
Stream size                              : 294 MiB (4%)
Title                                    : / 5.1 Ch / 384 kbps / ПД / Postmodern, іTunеs
Language                                 : Ukrainian
Service kind                             : Complete Main
Default                                  : Yes
Forced                                   : Yes

Audio #2
ID                                       : 3
Format                                   :
Format/Info                              : Digital Theater Systems
Codec ID                                 : A_DTS
Duration                                 : 1 h 47 min
Bit rate mode                            : Constant
Bit rate                                 : 1 509 kb/s
Channel(s)                               : 6 channels
Channel layout                           : C L R Ls Rs LFE
Sampling rate                            : 48.0 kHz
Frame rate                               : 93.750 FPS (512 SPF)
Bit depth                                : 16 bits
Compression mode                         : Lossy
Stream size                              : 1.13 GiB (17%)
Title                                    : / 5.1 Ch / 1509 kbps / Original
Language                                 : English
Default                                  : No
Forced                                   : No

Text #1
ID                                       : 4
Format                                   : UTF-8
Codec ID                                 : S_TEXT/UTF8
Codec ID/Info                            : UTF-8 Plain Text
Duration                                 : 1 h 32 min
Bit rate                                 : 5 b/s
Count of elements                        : 40
Stream size                              : 3.73 KiB (0%)
Title                                    : Forced
Language                                 : Ukrainian
Default                                  : Yes
Forced                                   : Yes

Text #2
ID                                       : 5
Format                                   : UTF-8
Codec ID                                 : S_TEXT/UTF8
Codec ID/Info                            : UTF-8 Plain Text
Duration                                 : 1 h 46 min
Bit rate                                 : 90 b/s
Count of elements                        : 2151
Stream size                              : 70.2 KiB (0%)
Title                                    : Full
Language                                 : English
Default                                  : No
Forced                                   : No

Menu
00:00:00.000                             : :Chapter 01
00:04:15.880                             : :Chapter 02
00:12:35.045                             : :Chapter 03
00:15:09.950                             : :Chapter 04
00:21:57.733                             : :Chapter 05
00:29:50.330                             : :Chapter 06
00:36:22.680                             : :Chapter 07
00:44:47.976                             : :Chapter 08
00:50:50.505                             : :Chapter 09
00:57:05.255                             : :Chapter 10
01:01:07.163                             : :Chapter 11
01:09:48.350                             : :Chapter 12
01:17:31.938                             : :Chapter 13
01:21:58.121                             : :Chapter 14
01:26:49.537                             : :Chapter 15
01:34:06.265                             : :Chapter 16
01:38:30.571                             : :Chapter 17
Світлини




Джерело: &
Особиста оцінка: 0 - не дивився


 Трекер:    Зареєстрований   

Завантажити / скачати мультфільм українською



відео для новачків



 Зареєстрований:   2019-09-15 10:34
 Розмір:   6.63 GB 
 Оцінка мультфільму:   9.4/10 (Голосів: 7)
   
ket 2017 
Новенький


З нами з: 04.12.17
Востаннє: 25.08.19
Повідомлень: 1

2019-07-06 22:19  
на філіпсі не показує(
Anonymous 







2019-09-15 10:35  
Додано якіснішу укр. доріжку.
Ваш часовий пояс: GMT + 2 Години

Нова тема   Відповісти