Смертельний лабіринт / Escape Room (2019) 1080p H.265 Ukr/Eng | Sub Eng

Нові коментарі

Нова тема   Відповісти
Автор Повідомлення
Anonymous 







2019-05-03 10:39  
Смертельний лабіринт / Escape Room (2019) 1080p H.265 Ukr/Eng | Sub Eng

Смертельний лабіринт / Escape Room (2019) 1080p H.265 Ukr/Eng | Sub Eng


Жанр: трилер
Країна: США, Канада
Кінокомпанія: Original Film
Режисер: Адам Робітел
Актори: Тейлор Расселл, Логан Міллер, Джей Елліс, Тайлер Лабін, Дебора Енн Волл, Нік Додані, Йорік ван Вагенінген, Корнеліус Джині мол., Рассел Кроус, Барт Фаш

Сюжет:
Шість незнайомців отримують анонімні запрошення взяти участь у тесті нової квест-кімнати. Вони приходять за вказаною у запрошенні адресою, двері кімнати закриваються, і молоді люди опиняються в ситуації, яку не можуть контролювати. І якщо вони не встигнуть знайти нову підказку і розгадати її, вони помруть.

Тривалість: 01:39:37
Якість:
Відео:
кодек: H.265 (HEVC)
розмір кадру: 1920 x 800
бітрейт: 6 853 кб/с
бітова глибина: 10 біт
Увага! Перед завантаженням переконайтесь, що ваш пристрій відтворення (та/або ПЗ) підтримує H.265 (HEVC)

Аудіо # 1:
мова: українська
переклад: професійний дубльований
кодек: AC-3 5.1
бітрейт: 640 кб/с

Аудіо # 2:
мова: англійська
переклад: оригінал
кодек: 5.1
бітрейт: 1510 кб/с

Субтитри # 1:
мова: українська (Forced),
тип: програмні (м'які)
формат: *.srt

Субтитри # 2:
мова: українська (Full),
тип: програмні (м'які)
формат: *.srt

Субтитри # 3:
мова: англійська (Full),
тип: програмні (м'які)
формат: *.srt

Субтитри # 4:
мова: англійська (SDH),
тип: програмні (м'які)
формат: *.srt


Info
Код:
General
Unique ID                                : 86687694575412099872088456705651849231 (0x413771536DB327B4551059DAAEE1380F)
Complete name                            : F:\Video\Escape Room (2019) 1080p H.265 [UKR_ENG] [Hurtom].
Format                                   :
Format version                           : Version 4
File size                                : 6.27 GiB
Duration                                 : 1 h 39 min
Overall bit rate                         : 9 005 kb/s
Movie name                               : Смертельний лабіринт / Escape Room (2019)
Encoded date                             : UTC 2019-05-19 12:42:44
Writing application                      : v20.0.0 ('I Am The Sun') 64-bit
Writing library                          : libebml v1.3.5 + v1.4.8
Cover                                    : Yes
Attachments                              : cover.jpg

Video
ID                                       : 1
Format                                   : HEVC
Format/Info                              : High Efficiency Video Coding
Format profile                           : Main [email protected]@High
Codec ID                                 : V_MPEGH/ISO/HEVC
Duration                                 : 1 h 39 min
Bit rate                                 : 6 853 kb/s
Width                                    : 1 920 pixels
Height                                   : 800 pixels
Display aspect ratio                     : 2.40:1
Frame rate mode                          : Constant
Frame rate                               : 23.976 (24000/1001) FPS
Color space                              : YUV
Chroma subsampling                       : 4:2:0
Bit depth                                : 10 bits
Bits/(Pixel*Frame)                       : 0.186
Stream size                              : 4.77 GiB (76%)
Title                                    : Смертельний лабіринт / Escape Room (2019)
Language                                 : English
Default                                  : Yes
Forced                                   : No
Color range                              : Limited
Color primaries                          : BT.709
Transfer characteristics                 : BT.709
Matrix coefficients                      : BT.709

Audio #1
ID                                       : 2
Format                                   : AC-3
Format/Info                              : Audio Coding 3
Commercial name                          : Dolby Digital
Codec ID                                 : A_AC3
Duration                                 : 1 h 39 min
Bit rate mode                            : Constant
Bit rate                                 : 640 kb/s
Channel(s)                               : 6 channels
Channel layout                           : L R C LFE Ls Rs
Sampling rate                            : 48.0 kHz
Frame rate                               : 31.250 FPS (1536 SPF)
Bit depth                                : 16 bits
Compression mode                         : Lossy
Stream size                              : 456 MiB (7%)
Title                                    : ПД - Dub [Ledoyen] - 5.1 @ 640 kbps - Blu-Ray
Language                                 : Ukrainian
Service kind                             : Complete Main
Default                                  : Yes
Forced                                   : Yes

Audio #2
ID                                       : 3
Format                                   :
Format/Info                              : Digital Theater Systems
Codec ID                                 : A_DTS
Duration                                 : 1 h 39 min
Bit rate mode                            : Constant
Bit rate                                 : 1 509 kb/s
Channel(s)                               : 6 channels
Channel layout                           : C L R Ls Rs LFE
Sampling rate                            : 48.0 kHz
Frame rate                               : 93.750 FPS (512 SPF)
Bit depth                                : 24 bits
Compression mode                         : Lossy
Stream size                              : 1.05 GiB (17%)
Title                                    : Original - 5.1 @ 1536 kbps
Language                                 : English
Default                                  : No
Forced                                   : No

Text #1
ID                                       : 4
Format                                   : UTF-8
Codec ID                                 : S_TEXT/UTF8
Codec ID/Info                            : UTF-8 Plain Text
Duration                                 : 1 h 34 min
Bit rate                                 : 0 b/s
Count of elements                        : 5
Stream size                              : 181 Bytes (0%)
Title                                    : Forced
Language                                 : Ukrainian
Default                                  : Yes
Forced                                   : Yes

Text #2
ID                                       : 5
Format                                   : UTF-8
Codec ID                                 : S_TEXT/UTF8
Codec ID/Info                            : UTF-8 Plain Text
Duration                                 : 1 h 38 min
Bit rate                                 : 91 b/s
Count of elements                        : 1345
Stream size                              : 65.8 KiB (0%)
Title                                    : Full
Language                                 : Ukrainian
Default                                  : No
Forced                                   : No

Text #3
ID                                       : 6
Format                                   : UTF-8
Codec ID                                 : S_TEXT/UTF8
Codec ID/Info                            : UTF-8 Plain Text
Duration                                 : 1 h 33 min
Bit rate                                 : 70 b/s
Count of elements                        : 1553
Stream size                              : 48.6 KiB (0%)
Title                                    : Full
Language                                 : English
Default                                  : No
Forced                                   : No

Text #4
ID                                       : 7
Format                                   : UTF-8
Codec ID                                 : S_TEXT/UTF8
Codec ID/Info                            : UTF-8 Plain Text
Duration                                 : 1 h 37 min
Bit rate                                 : 72 b/s
Count of elements                        : 1764
Stream size                              : 51.7 KiB (0%)
Title                                    : SDH
Language                                 : English
Default                                  : No
Forced                                   : No

Menu
00:00:00.000                             : en:00:00:00.000
00:04:36.026                             : en:00:04:36.026
00:09:25.648                             : en:00:09:25.648
00:14:08.765                             : en:00:14:08.765
00:19:46.102                             : en:00:19:46.102
00:25:55.220                             : en:00:25:55.220
00:33:08.945                             : en:00:33:08.945
00:37:27.162                             : en:00:37:27.162
00:43:05.082                             : en:00:43:05.082
00:50:06.170                             : en:00:50:06.170
00:53:58.569                             : en:00:53:58.569
01:03:15.291                             : en:01:03:15.291
01:09:07.894                             : en:01:09:07.894
01:16:14.695                             : en:01:16:14.695
01:22:48.755                             : en:01:22:48.755
01:30:27.881                             : en:01:30:27.881
Світлини





Джерело: &
Особиста оцінка: 0 - не дивився


 Трекер:    Зареєстрований   

Завантажити / скачати фільм українською



відео для новачків



 Зареєстрований:   2019-05-19 15:59
 Розмір:   6.27 GB 
 Оцінка фільму:   9.4/10 (Голосів: 8)
   
Anonymous 







2019-05-19 14:29  
Замінив доріжку з та додав українські субтитри

staf777 
Відео Гуртом - підтримка та поширення
Відео Гуртом - підтримка та поширення


З нами з: 16.11.16
Востаннє: 21.07.19
Повідомлень: 2676

2019-05-19 20:08  
Не погане кіно
Ваш часовий пояс: GMT + 2 Години

Нова тема   Відповісти