Сарадзаммай (серії 2 з 11)/ Sarazanmai / さらざんまい (2019) 1080р Jap | Sub Ukr

Нові коментарі

Нова тема   Відповісти
Автор Повідомлення
Amanogawa 
VIP


З нами з: 27.09.17
Востаннє: 07.04.20
Повідомлень: 649

2019-05-03 05:43  
Сарадзаммай (серії 2 з 11)/ Sarazanmai / さらざんまい (2019) 1080р Jap | Sub Ukr

Сарадзаммай (серії 2 з 11)/ Sarazanmai / さらざんまい (2019) 1080р Jap | Sub Ukr


Жанр: фентезі, екшн, комедія, надприродне, буденність
Країна: Японія


7.18 (голосів: 4 561)

Кінокомпанія: MAPPA
Режисер: Куніхіко Ікухара (Kunihiko Ikuhara), Нобуюкі Такеїчі (Nobuyuki Takeuchi)
Актори: Коукі Учіяма (Uchiyama Kouki), Шун Хоріе (Horie Shun), Аюму Мурасе (Murase Ayumu), Джунічі Сувабе (Suwabe Junichi), Мамору Міяно (Miyano Mamoru), Йошімаса Хосоя (Hosoya Yoshimasa)

Сюжет:
Восьмикласники Кадзукі Ясака та Той Куджі випадково розбивають статую каппи (міфічна істота схожа на черепаху), що стояла в Асакусі, одному з кварталів Токіо. Знищення статуї пробуджує Кеппі, дивну істоту, більше схожу на свиню, ніж на каппу. Проте Кеппі є принцем королівства капп і коли його називають жабою, від образи перетворює хлопців на капп висмоктавши їх шірікодами (круглий орган в людському анусі, який зберігає енергію бажань). Невдовзі з тої ж причини на каппу перетворюється й Ента Джіннай.

Тепер аби повернути собі людську форму ця трійця мусить здолати каппа-зомбі, яких створюють вороги Кеппі. Щоб перемогти зомбі, треба забрати в нього шірікодаму (здогадайтеся як) і за допомогою сарадзаммай передати її Кеппі. І тільки у формі каппи це можливо.

Але, як виявилося, сарадзаммай щоразу розкриває якийсь із секретів новоспечених капп і все, що ми бачили до цього виявляється не зовсім тим, що ми бачили.


Тривалість серії: 00:22:55
Перелік серій
1. Я хочу зв'язків, але хочу брехати.
2. Я хочу зв'язків, але хочу красти.
3. --- невдовзі буде ---
4. ---
5. ---
6. ---
7. ---
8. ---
9. ---
10. ---
11. ---
Якість:
Відео:
кодек:
розмір кадру: 1920 × 1080
бітрейт: ~5900 кбіт/с

Аудіо:
мова: японська
переклад: оригінал
кодек: 2.0
бітрейт: 256 кбіт/с

Субтитри:
мова: українська (повні)
тип: програмні (м'які)
формат: *.
Info
General
Unique ID : 243873219011235494537719453929686230910 (0xB7784604EF10735558832FA6C3B8E77E)
Complete name : [Mitsuruki] Sarazanmai - 01 [1080p][ukr sub].
Format :
Format version : Version 4 / Version 2
File size : 976 MiB
Duration : 22 min 55 s
Overall bit rate : 5 953 kb/s
Movie name : [Mitsuruki] Sarazanmai - 01 [1080p][ukr sub].
Encoded date : UTC 2019-05-03 01:58:21
Writing application : v33.1.0 ('Primrose') 64-bit
Writing library : libebml v1.3.7 + v1.5.0
Attachments : Gill Sans Nova Inline Condensed.ttf / OpenSans-Bold.ttf / OpenSans-BoldItalic.ttf / OpenSans-ExtraBold.ttf / OpenSans-ExtraBoldItalic.ttf / OpenSans-Italic.ttf / OpenSans-Light.ttf / OpenSans-LightItalic.ttf / OpenSans-Regular.ttf / OpenSans-SemiBold.ttf / OpenSans-SemiBoldItalic.ttf / PT_Sans-Web-Bold.ttf / PT_Sans-Web-BoldItalic.ttf / PT_Sans-Web-Italic.ttf / PT_Sans-Web-Regular.ttf / CLASS-HYOUKA.TTF / Corinthian Medium.ttf / CrayonHandRegular2016Demo.ttf / D3_Factorism_Alphabet_square.ttf / DANIELBLACK.TTF / Dirty Headline.ttf / FOT-HummingStdEn-NatsuKise.ttf / frenchgr.ttf / FromWhereYouAre.ttf / IwaMinPro-Md-Kami.ttf / IwaOMinPro-Bd-Fate.ttf / KurokaneStd-EB-Str.otf / Lato-Black.ttf / Lato-Bold.ttf / Lato-BoldItalic.ttf / Lato-Heavy.ttf / Lato-Light.ttf / Lazer84.ttf / LeckerliOne-Regular.otf / Library 3 am.otf / LLPIXEL3.ttf / MARYJ__.ttf / olivier_demo.ttf / Psychedelic.ttf / ROCKOULTRAFLF.TTF / ROLANDBECKER-BOLD.TTF / seguisym.ttf / Tumbleweed MF.ttf / APJFK-ANOHANA.TTF / BeeMarkerInk.TTF / BOLDHANDWRITING.TTF / Brush Strokes.ttf / BRUSHSTROKE-REGULAR.TTF / Change Tomorrow Today.TTF

Video
ID : 1
Format : AVC
Format/Info : Advanced Video Codec
Format profile : High [email protected]
Format settings : CABAC / 16 Ref Frames
Format settings, CABAC : Yes
Format settings, ReFrames : 16 frames
Codec ID : V_MPEG4/ISO/AVC
Duration : 22 min 55 s
Bit rate : 5 624 kb/s
Width : 1 920 pixels
Height : 1 080 pixels
Display aspect ratio : 16:9
Frame rate mode : Constant
Frame rate : 23.976 (24000/1001) FPS
Color space : YUV
Chroma subsampling : 4:2:0
Bit depth : 10 bits
Scan type : Progressive
Bits/(Pixel*Frame) : 0.113
Stream size : 922 MiB (94%)
Writing library : core 155 r2867+74 66b5600 t_mod_Custom_2 [[email protected] X86_64]
Encoding settings : cabac=1 / ref=16 / deblock=1:-1:-1 / analyse=0x3:0x133 / me=umh / subme=10 / psy=1 / fade_compensate=0.80 / psy_rd=0.92:0.00 / mixed_ref=1 / me_range=24 / chroma_me=1 / trellis=2 / 8x8dct=1 / cqm=0 / deadzone=21,11 / fast_pskip=1 / chroma_qp_offset=-2 / threads=12 / lookahead_threads=3 / sliced_threads=0 / nr=0 / decimate=1 / interlaced=0 / bluray_compat=0 / constrained_intra=0 / fgo=0 / bframes=16 / b_pyramid=2 / b_adapt=2 / b_bias=0 / direct=3 / weightb=1 / open_gop=0 / weightp=2 / keyint=250 / keyint_min=23 / scenecut=40 / intra_refresh=0 / rc_lookahead=60 / rc=crf / mbtree=1 / crf=15.7000 / qcomp=0.65 / qpmin=0:0:0 / qpmax=81:81:81 / qpstep=4 / ip_ratio=1.40 / aq=3:0.80 / aq-sensitivity=10.00 / aq-factor=1.00:1.00:1.00 / aq2=0 / aq3=0
Language : Japanese
Default : Yes
Forced : No
Color range : Limited
Matrix coefficients : BT.709

Audio
ID : 2
Format :
Format/Info : Advanced Audio Codec
Format profile : LC
Codec ID : A_AAC-2
Duration : 22 min 55 s
Bit rate : 256 kb/s
Channel(s) : 2 channels
Channel positions : Front: L R
Sampling rate : 48.0 kHz
Frame rate : 46.875 FPS (1024 SPF)
Compression mode : Lossy
Stream size : 42.0 MiB (4%)
Language : Japanese
Default : Yes
Forced : No

Text
ID : 3
Format :
Codec ID : S_TEXT/
Codec ID/Info : Advanced Sub Station Alpha
Duration : 22 min 50 s
Bit rate : 801 b/s
Count of elements : 1009
Compression mode : Lossless
Stream size : 134 KiB (0%)
Title : Mitsuruki
Language : Ukrainian
Default : Yes
Forced : No

Menu
00:00:00.000 : :Prologue
00:01:41.018 : :OP
00:03:10.982 : :Part A
00:12:32.001 : :Part B
00:20:26.016 : :ED
00:22:01.070 : :Part C
Скріншоти
Джерело: HorribleSubs, AsenshiSubs | Переклад Mitsuruki
Переклад: Dotrox
Особиста оцінка: поки 9, але знаючи автора має врешті дотягти до 10, коли вийде весь сезон.


Золотий реліз (завантажене не впливає на рейтинг)
 Трекер:    Зареєстрований   

Завантажити / скачати аніме українською



відео для новачків



 Зареєстрований:   2019-06-02 05:06
 Розмір:   1.82 GB 
 Оцінка аніме:   9.7/10 (Голосів: 3)
   
Amanogawa 
VIP


З нами з: 27.09.17
Востаннє: 07.04.20
Повідомлень: 649

2019-06-02 05:10  
Додано другу серію.
Торрент оновлено.

Ваш часовий пояс: GMT + 2 Години

Нова тема   Відповісти