Ноша / Карґо / Cargo (2017) Remux 1080p Ukr/Eng | Sub Ukr/Eng

Нові коментарі

Нова тема   Відповісти
Автор Повідомлення
antik_2008 
Релізер і модератор відео


З нами з: 20.10.08
Востаннє: 19.06.19
Повідомлень: 2058

2019-05-02 15:20  
Ноша / Карґо / Cargo (2017) Remux 1080p Ukr/Eng | Sub Ukr/Eng

Ноша / Карґо / Cargo (2017) Remux 1080p Ukr/Eng | Sub Ukr/Eng


Жанр: драма, жахи
Країна: Австралія





Кінокомпанія: Head Gear Films
Режисер: Бен Гоулінґ, Іоланда Рамке
Актори: Мартін Фрімен, Ентоні Гайс, Сусі Портер та інші.

Сюжет:
Історія про Енді, який через нашестя зомбі втрачає свою дружину та залишається на самоті з маленькою донечкою. Його теж вкусили, тому він має лише 48 годин на те щоб знайти безпечне місце для немовляти і єдиним таким місцем є поселення аборигенів, але потрапити до них не так просто.


Тривалість: 01:43:36
Якість: Remux 1080p
Відео:
кодек:
розмір кадру: 1920x1080
бітрейт: 29099 кб/с

Аудіо # 1:
мова: українська
переклад: багатоголосий закадровий
кодек: -HD MA 5.1
бітрейт: 3384 кб/с

Аудіо # 2:
мова: українська
переклад: багатоголосий закадровий
кодек: 5.1
бітрейт: 384 кб/с

Аудіо # 3:
мова: англійська
переклад: оригінал
кодек: -HD MA 5.1
бітрейт: 3365 кб/с

Аудіо # 4:
мова: англійська
переклад: оригінал
кодек: 5.1
бітрейт: 384 кб/с

Субтитри # 1:
мова: українська
тип: програмні (м'які)
формат: *.srt

Субтитри # 2:
мова: англійська
тип: програмні (м'які)
формат: *.srt

Джерело озвучення:

Переклад: Elfes, Наталя Плотник
Ролі озвучували: Lomaev, Trina_D, Дядько Грей
Робота зі звуком: Ейдж
Постер: SigridMarialer
Info
Код:
General
Complete name                            : Cargo (2017) Blu-Ray Remux [ukr,eng] [ViDeO_Hurtom].
Format                                   :
Format version                           : Version 4
File size                                : 26.5 GiB
Duration                                 : 1 h 44 min
Overall bit rate mode                    : Variable
Overall bit rate                         : 36.5 Mb/s
Movie name                               : Cargo (2017) Blu-Ray Remux [ukr,eng] [ViDeO_Hurtom]
Encoded date                             : UTC 2019-05-03 12:08:28
Writing application                      : v30.1.0 ('Forever And More') 64-bit
Writing library                          : libebml v1.3.6 + v1.4.9

Video
ID                                       : 1
Format                                   : AVC
Format/Info                              : Advanced Video Codec
Format profile                           : [email protected]
Format settings                          : CABAC / 3 Ref Frames
Format settings, CABAC                   : Yes
Format settings, RefFrames               : 3 frames
Codec ID                                 : V_MPEG4/ISO/AVC
Duration                                 : 1 h 43 min
Bit rate mode                            : Variable
Bit rate                                 : 29.1 Mb/s
Nominal bit rate                         : 33.0 Mb/s
Maximum bit rate                         : 36.0 Mb/s
Width                                    : 1 920 pixels
Height                                   : 1 080 pixels
Display aspect ratio                     : 16:9
Frame rate mode                          : Constant
Frame rate                               : 23.976 (24000/1001) FPS
Standard                                 : NTSC
Color space                              : YUV
Chroma subsampling                       : 4:2:0
Bit depth                                : 8 bits
Scan type                                : Progressive
Bits/(Pixel*Frame)                       : 0.585
Stream size                              : 21.1 GiB (79%)
Title                                    : Бремя_Cargo (2017) Remux.1080p.NNMClub
Writing library                          : x264pro - Adobe CS Exporter Plug-in
Encoding settings                        : cabac=1 / ref=4 / deblock=1:-2:-2 / analyse=0x3:0x113 / me=umh / subme=8 / psy=1 / psy_rd=1.00:0.25 / mixed_ref=1 / me_range=16 / chroma_me=1 / trellis=1 / 8x8dct=1 / cqm=0 / deadzone=6,6 / fast_pskip=1 / chroma_qp_offset=-4 / threads=48 / lookahead_threads=8 / sliced_threads=0 / slices=4 / nr=0 / decimate=0 / interlaced=0 / bluray_compat=1 / constrained_intra=0 / bframes=3 / b_pyramid=1 / b_adapt=2 / b_bias=0 / direct=3 / weightb=1 / open_gop=0 / weightp=1 / keyint=24 / keyint_min=1 / scenecut=40 / intra_refresh=0 / rc_lookahead=24 / rc=2pass / mbtree=1 / bitrate=33000 / ratetol=1.0 / qcomp=0.80 / qpmin=0 / qpmax=69 / qpstep=4 / cplxblur=20.0 / qblur=0.5 / vbv_maxrate=36000 / vbv_bufsize=30000 / nal_hrd=vbr / ip_ratio=1.10 / aq=1:1.00
Language                                 : English
Default                                  : No
Forced                                   : No
Color range                              : Limited
Color primaries                          : BT.709
Transfer characteristics                 : BT.709
Matrix coefficients                      : BT.709

Audio #1
ID                                       : 2
Format                                   : XLL
Format/Info                              : Digital Theater Systems
Commercial name                          : -HD Master Audio
Codec ID                                 : A_DTS
Duration                                 : 1 h 43 min
Bit rate mode                            : Variable
Bit rate                                 : 3 384 kb/s
Channel(s)                               : 6 channels
Channel layout                           : C L R Ls Rs LFE
Sampling rate                            : 48.0 kHz
Frame rate                               : 93.750 FPS (512 SPF)
Bit depth                                : 24 bits
Compression mode                         : Lossless
Stream size                              : 2.45 GiB (9%)
Title                                    : -HD MA, 6 ch, 3384 Кбт/с
Language                                 : Ukrainian
Default                                  : Yes
Forced                                   : No

Audio #2
ID                                       : 3
Format                                   : AC-3
Format/Info                              : Audio Coding 3
Commercial name                          : Dolby Digital
Codec ID                                 : A_AC3
Duration                                 : 1 h 44 min
Bit rate mode                            : Constant
Bit rate                                 : 384 kb/s
Channel(s)                               : 6 channels
Channel layout                           : L R C LFE Ls Rs
Sampling rate                            : 48.0 kHz
Frame rate                               : 31.250 FPS (1536 SPF)
Bit depth                                : 16 bits
Compression mode                         : Lossy
Stream size                              : 286 MiB (1%)
Title                                    : , 6 ch, 384 Кбт/с
Language                                 : Ukrainian
Service kind                             : Complete Main
Default                                  : No
Forced                                   : No

Audio #3
ID                                       : 4
Format                                   : XLL
Format/Info                              : Digital Theater Systems
Commercial name                          : -HD Master Audio
Codec ID                                 : A_DTS
Duration                                 : 1 h 43 min
Bit rate mode                            : Variable
Bit rate                                 : 3 365 kb/s
Channel(s)                               : 6 channels
Channel layout                           : C L R Ls Rs LFE
Sampling rate                            : 48.0 kHz
Frame rate                               : 93.750 FPS (512 SPF)
Bit depth                                : 24 bits
Compression mode                         : Lossless
Stream size                              : 2.44 GiB (9%)
Title                                    : -HD MA, 6 ch, 3365 Кбт/с
Language                                 : English
Default                                  : No
Forced                                   : No

Audio #4
ID                                       : 5
Format                                   : AC-3
Format/Info                              : Audio Coding 3
Commercial name                          : Dolby Digital
Codec ID                                 : A_AC3
Duration                                 : 1 h 44 min
Bit rate mode                            : Constant
Bit rate                                 : 384 kb/s
Channel(s)                               : 6 channels
Channel layout                           : L R C LFE Ls Rs
Sampling rate                            : 48.0 kHz
Frame rate                               : 31.250 FPS (1536 SPF)
Bit depth                                : 16 bits
Compression mode                         : Lossy
Stream size                              : 286 MiB (1%)
Title                                    : , 6 ch, 384 Кбт/с
Language                                 : English
Service kind                             : Complete Main
Default                                  : No
Forced                                   : No

Text #1
ID                                       : 6
Format                                   : UTF-8
Codec ID                                 : S_TEXT/UTF8
Codec ID/Info                            : UTF-8 Plain Text
Duration                                 : 1 h 36 min
Bit rate                                 : 40 b/s
Count of elements                        : 672
Stream size                              : 29.0 KiB (0%)
Title                                    : Full
Language                                 : Ukrainian
Default                                  : Yes
Forced                                   : No

Text #2
ID                                       : 7
Format                                   : UTF-8
Codec ID                                 : S_TEXT/UTF8
Codec ID/Info                            : UTF-8 Plain Text
Duration                                 : 1 h 42 min
Bit rate                                 : 34 b/s
Count of elements                        : 933
Stream size                              : 25.8 KiB (0%)
Title                                    : SDH
Language                                 : English
Default                                  : No
Forced                                   : No

Menu
00:00:00.000                             : en:Chapter 01
00:00:42.333                             : en:Chapter 02
00:06:33.101                             : en:Chapter 03
00:16:29.738                             : en:Chapter 04
00:26:01.977                             : en:Chapter 05
00:31:49.616                             : en:Chapter 06
00:43:30.232                             : en:Chapter 07
00:54:46.825                             : en:Chapter 08
01:05:59.580                             : en:Chapter 09
01:12:16.123                             : en:Chapter 10
01:20:56.142                             : en:Chapter 11
01:26:07.453                             : en:Chapter 12
01:38:25.524                             : en:Chapter 13
Скріншоти








Дякую Electroz за допомогу в створені реліза

Джерело: & Dzuski
Особиста оцінка: 6 - третій сорт - не брак


Авторський реліз (завантажувати можна без реєстрації)
 Трекер:    Зареєстрований   

Завантажити / скачати фільм українською



відео для новачків



 Зареєстрований:   2019-05-03 15:46
 Розмір:   26.51 GB 
 Оцінка фільму:   7.9/10 (Голосів: 12)
   
Інші релізи
   Ноша / Карґо / Cargo (2017) AVC Ukr/Eng | Sub Ukr/Eng antik_2008  7 / 2   1.86 GB   2019-05-02 16:50 
   Ноша / Карґо / Cargo (2017) 1080p Ukr/Eng | Sub Ukr/Eng antik_2008  1 / 0   10.78 GB   2019-05-02 15:20 
   Ноша / Карґо / Cargo (2017) Ukr/Eng antik_2008  7 / 4   1.95 GB   2019-05-02 15:19 
   Ноша / Карґо / Cargo (2017) 720p Ukr/Eng | Sub Ukr/Eng antik_2008  2 / 0   5.26 GB   2019-05-02 15:19 
bot 
робот


З нами з: 30.09.07
Востаннє: 26.05.05
Повідомлень: 21522

2019-05-03 15:46  
Тему перенесено з Анонси релізів до форуму Фільми в HD


antik_2008

famous37 
Відео Гуртом - фільмокрай
Відео Гуртом - фільмокрай


З нами з: 16.11.08
Востаннє: 19.06.19
Повідомлень: 960

2019-05-05 00:43  
Хороший фільм про зомбі)
sandman 
VIP


З нами з: 12.08.12
Востаннє: 18.06.19
Повідомлень: 272

2019-05-05 20:20  
famous37 я б сказав би коротше: хорошй фільм Happy (маю на увазі, що зомбі там з'яляються - раз, два і все). Скачав через Фрімана, а стрічка (не дилячись на зомбі) виявилась непоганою сильною драмою. Не пошкодував. Раджу.
Ваш часовий пояс: GMT + 2 Години

Нова тема   Відповісти