Ноша / Карґо / Cargo (2017) 720p Ukr/Eng | Sub Ukr/Eng

Нові коментарі

Нова тема   Відповісти
Останній раз роздавалося spee2k (2019-11-20)
Автор Повідомлення
Anonymous 







2019-05-02 14:19  
Ноша / Карґо / Cargo (2017) 720p Ukr/Eng | Sub Ukr/Eng

Ноша / Карґо / Cargo (2017) 720p Ukr/Eng | Sub Ukr/Eng


Жанр: драма, жахи
Країна: Австралія





Кінокомпанія: Head Gear Films
Режисер: Бен Гоулінґ, Іоланда Рамке
Актори: Мартін Фрімен, Ентоні Гайс, Сусі Портер та інші.

Сюжет:
Історія про Енді, який через нашестя зомбі втрачає свою дружину та залишається на самоті з маленькою донечкою. Його теж вкусили, тому він має лише 48 годин на те щоб знайти безпечне місце для немовляти і єдиним таким місцем є поселення аборигенів, але потрапити до них не так просто.


Тривалість: 01:43:36
Якість: 720p
Відео:
кодек:
розмір кадру: 1280x572
бітрейт: 6500 кб/с

Аудіо # 1:
мова: українська
переклад: багатоголосий закадровий
кодек: 5.1
бітрейт: 384 кб/с

Аудіо # 2:
мова: англійська
переклад: оригінал
кодек: 5.1
бітрейт: 384 кб/с

Субтитри # 1:
мова: українська
тип: програмні (м'які)
формат: *.srt

Субтитри # 2:
мова: англійська
тип: програмні (м'які)
формат: *.srt

Джерело озвучення:

Переклад: Elfes, Наталя Плотник
Ролі озвучували: Lomaev, Trina_D, Дядько Грей
Робота зі звуком: Ейдж
Постер: SigridMarialer
Info
Код:
General
Complete name                            : Cargo (2017) 720p [Ukr_Eng] [Video_Hurtom].
Format                                   :
Format version                           : Version 4
File size                                : 5.26 GiB
Duration                                 : 1 h 44 min
Overall bit rate                         : 7 243 kb/s
Movie name                               : Cargo (2017) 720p [Ukr_Eng] [Video_Hurtom]
Encoded date                             : UTC 2019-05-02 11:56:16
Writing application                      : v30.1.0 ('Forever And More') 64-bit
Writing library                          : libebml v1.3.6 + v1.4.9

Video
ID                                       : 1
Format                                   : AVC
Format/Info                              : Advanced Video Codec
Format profile                           : [email protected]
Format settings                          : CABAC / 11 Ref Frames
Format settings, CABAC                   : Yes
Format settings, RefFrames               : 11 frames
Codec ID                                 : V_MPEG4/ISO/AVC
Duration                                 : 1 h 43 min
Bit rate                                 : 6 500 kb/s
Width                                    : 1 280 pixels
Height                                   : 572 pixels
Display aspect ratio                     : 2.25:1
Frame rate mode                          : Constant
Frame rate                               : 23.976 (24000/1001) FPS
Color space                              : YUV
Chroma subsampling                       : 4:2:0
Bit depth                                : 8 bits
Scan type                                : Progressive
Bits/(Pixel*Frame)                       : 0.370
Stream size                              : 4.70 GiB (89%)
Writing library                          : core 155 r2901 7d0ff22
Encoding settings                        : cabac=1 / ref=11 / deblock=1:-3:-3 / analyse=0x3:0x133 / me=umh / subme=10 / psy=1 / psy_rd=1.00:0.00 / mixed_ref=1 / me_range=32 / chroma_me=1 / trellis=2 / 8x8dct=1 / cqm=0 / deadzone=21,11 / fast_pskip=0 / chroma_qp_offset=-2 / threads=12 / lookahead_threads=1 / sliced_threads=0 / nr=0 / decimate=1 / interlaced=0 / bluray_compat=0 / constrained_intra=0 / bframes=6 / b_pyramid=2 / b_adapt=2 / b_bias=0 / direct=3 / weightb=1 / open_gop=0 / weightp=2 / keyint=230 / keyint_min=22 / scenecut=40 / intra_refresh=0 / rc_lookahead=60 / rc=2pass / mbtree=1 / bitrate=6500 / ratetol=1.0 / qcomp=0.60 / qpmin=0 / qpmax=69 / qpstep=4 / cplxblur=20.0 / qblur=0.5 / vbv_maxrate=50000 / vbv_bufsize=50000 / nal_hrd=none / filler=0 / ip_ratio=1.40 / aq=1:1.00
Language                                 : English
Default                                  : Yes
Forced                                   : No

Audio #1
ID                                       : 2
Format                                   : AC-3
Format/Info                              : Audio Coding 3
Commercial name                          : Dolby Digital
Codec ID                                 : A_AC3
Duration                                 : 1 h 44 min
Bit rate mode                            : Constant
Bit rate                                 : 384 kb/s
Channel(s)                               : 6 channels
Channel layout                           : L R C LFE Ls Rs
Sampling rate                            : 48.0 kHz
Frame rate                               : 31.250 FPS (1536 SPF)
Bit depth                                : 16 bits
Compression mode                         : Lossy
Delay relative to video                  : 16 ms
Stream size                              : 286 MiB (5%)
Title                                    : 5.1 | 384 kb/s
Language                                 : Ukrainian
Service kind                             : Complete Main
Default                                  : Yes
Forced                                   : No

Audio #2
ID                                       : 3
Format                                   : AC-3
Format/Info                              : Audio Coding 3
Commercial name                          : Dolby Digital
Codec ID                                 : A_AC3
Duration                                 : 1 h 44 min
Bit rate mode                            : Constant
Bit rate                                 : 384 kb/s
Channel(s)                               : 6 channels
Channel layout                           : L R C LFE Ls Rs
Sampling rate                            : 48.0 kHz
Frame rate                               : 31.250 FPS (1536 SPF)
Bit depth                                : 16 bits
Compression mode                         : Lossy
Delay relative to video                  : 16 ms
Stream size                              : 286 MiB (5%)
Title                                    : 5.1 | 384 kb/s
Language                                 : English
Service kind                             : Complete Main
Default                                  : No
Forced                                   : No

Text #1
ID                                       : 4
Format                                   : UTF-8
Codec ID                                 : S_TEXT/UTF8
Codec ID/Info                            : UTF-8 Plain Text
Duration                                 : 1 h 36 min
Bit rate                                 : 40 b/s
Count of elements                        : 672
Stream size                              : 29.0 KiB (0%)
Title                                    : Full
Language                                 : Ukrainian
Default                                  : Yes
Forced                                   : No

Text #2
ID                                       : 5
Format                                   : UTF-8
Codec ID                                 : S_TEXT/UTF8
Codec ID/Info                            : UTF-8 Plain Text
Duration                                 : 1 h 42 min
Bit rate                                 : 34 b/s
Count of elements                        : 933
Stream size                              : 25.8 KiB (0%)
Title                                    : SDH
Language                                 : English
Default                                  : No
Forced                                   : No

Menu
00:00:00.000                             : :00:00:00.000
00:00:42.334                             : :00:00:42.334
00:06:33.101                             : :00:06:33.101
00:16:29.739                             : :00:16:29.739
00:26:01.977                             : :00:26:01.977
00:31:49.616                             : :00:31:49.616
00:43:30.233                             : :00:43:30.233
00:54:46.825                             : :00:54:46.825
01:05:59.581                             : :01:05:59.581
01:12:16.123                             : :01:12:16.123
01:20:56.143                             : :01:20:56.143
01:26:07.454                             : :01:26:07.454
01:38:25.525                             : :01:38:25.525
Скріншоти




Джерело: & Dzuski
Особиста оцінка: 6 - третій сорт - не брак


Авторський реліз (завантажувати можна без реєстрації)
 Трекер:    Зареєстрований   

Завантажити / скачати фільм українською



відео для новачків



 Зареєстрований:   2019-05-02 14:19
 Розмір:   5.26 GB 
 Оцінка фільму:   8.8/10 (Голосів: 11)
   
Інші релізи
   Ноша / Карґо / Cargo (2017) Remux 1080p Ukr/Eng | Sub Ukr/Eng antik_2008  2 / 0   26.51 GB   2019-05-03 14:46 
   Ноша / Карґо / Cargo (2017) AVC Ukr/Eng | Sub Ukr/Eng antik_2008  4 / 0   1.86 GB   2019-05-02 15:50 
   Ноша / Карґо / Cargo (2017) 1080p Ukr/Eng | Sub Ukr/Eng antik_2008  5 / 0   10.78 GB   2019-05-02 14:20 
   Ноша / Карґо / Cargo (2017) Ukr/Eng antik_2008  8 / 0   1.95 GB   2019-05-02 14:19 
380630760879 
Новенький


З нами з: 08.08.15
Востаннє: 01.08.19
Повідомлень: 3

2019-05-08 22:55  
Custo 12 
Свій


З нами з: 08.11.16
Востаннє: 18.11.19
Повідомлень: 117

2019-05-11 08:30  
Голоси акторів і якість озвучення вбиває і без того нудний, нецікавий фільм. Вимкнув через півгодини.
Ваш часовий пояс: GMT + 2 Години

Нова тема   Відповісти