Зоряна Брама: Початок (міні-серіал) / Stargate Origins: Catherine (mini-series) (2018) 1080p 2xUkr/Eng | sub Ukr/Eng

Нові коментарі

Нова тема   Відповісти
Автор Повідомлення
Anonymous 







2019-04-30 20:32  
Зоряна Брама: Початок (міні-серіал) / Stargate Origins: Catherine (mini-series) (2018) 1080p 2xUkr/Eng | sub Ukr/Eng

Зоряна Брама: Початок (міні-серіал) / Stargate Origins: Catherine (mini-series) (2018) 1080p 2xUkr/Eng | sub Ukr/Eng


Жанр: фантастика, пригодницький
Країна: США



Кінокомпанія: Metro Goldwyn Mayer Studios, New Form
Режисер: Мерседес Брайс Морган (Mercedes Bryce Morgan)
Актори: Еллі Ґалл (Ellie Gall), Філіп Александр (Philip Alexander), Коннор Тріннір (Connor Trinneer) та інші

Сюжет:
Приквел науково-фантастичного фільму «Зоряна брама» 1994 року. Головною героїнею веб-серіалу є молода Кетрін Ленґфорд, донька професора Пола Ленґфорда, який знайшов браму в 1928 році. Вона потрапляє у несподівану пригоду, під час якої дізнається про таємницю, що знаходиться за Зоряною брамою, і намагатиметься врятувати Землю від небезпеки.


Тривалість: 1 серія: 01:44:51 (цілком серій: 1*)
Перелік серій
01) Catherine (відповідає 10 серіям оригінального релізу)

* Спочатку цей серіал було випущено у вигляді 10 коротесеньких серій. Це відео - пізніша версія релізу серіалу від його творців: усі серії було об'єднано в одну + деякі інші дрібні покращення.

Якість: 1080p [Amazon]
Відео:
кодек:
розмір кадру: 1920 х 960
бітрейт: 8941 кб/с

Аудіо # 1:
мова: українська
переклад: двоголосий закадровий | 2+2
кодек: 2.0
бітрейт: 192 кб/с

Аудіо # 2:
мова: українська
переклад: двоголосий закадровий | MelodicVoiceStudio & Dzuski
ролі озвучували: Lomaev, Тріна Дубовицька
кодек: 2.0
бітрейт: 192 кб/с

Аудіо # 3:
мова: англійська
переклад: оригінал
кодек: E- 5.1
бітрейт: 640 кб/с

Субтитри:
мова: українська
перекладачі: VoronXVI, Oleksander (з Паляниці)
тип: програмні (м'які)
формат: *.srt

Субтитри:
мова: англійська
тип: програмні (м'які)
формат: *.srt
Info
General
Unique ID : 144046640450691797121502687767567009760 (0x6C5E5FB2E130F9A7386172B2142807E0)
Complete name : E:\Support\Stargate Origins. Catherine [, 1080p, Ukr, Eng].
Format :
Format version : Version 4
File size : 7.30 GiB
Duration : 1 h 44 min
Overall bit rate : 9 967 kb/s
Encoded date : UTC 2019-09-08 13:08:51
Writing application : v37.0.0 ('Leave It') 64-bit
Writing library : libebml v1.3.9 + v1.5.2

Video
ID : 1
Format : AVC
Format/Info : Advanced Video Codec
Format profile : [email protected]
Format settings : CABAC / 4 Ref Frames
Format settings, CABAC : Yes
Format settings, ReFrames : 4 frames
Codec ID : V_MPEG4/ISO/AVC
Duration : 1 h 44 min
Bit rate : 8 941 kb/s
Width : 1 920 pixels
Height : 960 pixels
Display aspect ratio : 2.000
Frame rate mode : Constant
Frame rate : 23.976 (24000/1001) FPS
Color space : YUV
Chroma subsampling : 4:2:0
Bit depth : 8 bits
Scan type : Progressive
Bits/(Pixel*Frame) : 0.202
Stream size : 6.55 GiB (90%)
Default : Yes
Forced : No
Color range : Limited
Color primaries : BT.709
Transfer characteristics : BT.709
Matrix coefficients : BT.709

Audio #1
ID : 2
Format : AC-3
Format/Info : Audio Coding 3
Commercial name : Dolby Digital
Codec ID : A_AC3
Duration : 1 h 44 min
Bit rate mode : Constant
Bit rate : 192 kb/s
Channel(s) : 2 channels
Channel layout : L R
Sampling rate : 48.0 kHz
Frame rate : 31.250 FPS (1536 SPF)
Bit depth : 16 bits
Compression mode : Lossy
Stream size : 144 MiB (2%)
Title : 2+2
Language : Ukrainian
Service kind : Complete Main
Default : Yes
Forced : No

Audio #2
ID : 3
Format : AC-3
Format/Info : Audio Coding 3
Commercial name : Dolby Digital
Codec ID : A_AC3
Duration : 1 h 44 min
Bit rate mode : Constant
Bit rate : 192 kb/s
Channel(s) : 2 channels
Channel layout : L R
Sampling rate : 48.0 kHz
Frame rate : 31.250 FPS (1536 SPF)
Bit depth : 16 bits
Compression mode : Lossy
Stream size : 144 MiB (2%)
Title : MelodicVoiceStudio & Dzuski
Language : Ukrainian
Service kind : Complete Main
Default : No
Forced : No

Audio #3
ID : 4
Format : E-AC-3
Format/Info : Enhanced AC-3
Commercial name : Dolby Digital Plus
Codec ID : A_EAC3
Duration : 1 h 44 min
Bit rate mode : Constant
Bit rate : 640 kb/s
Channel(s) : 6 channels
Channel layout : L R C LFE Ls Rs
Sampling rate : 48.0 kHz
Frame rate : 31.250 FPS (1536 SPF)
Compression mode : Lossy
Stream size : 480 MiB (6%)
Language : English
Service kind : Complete Main
Default : No
Forced : No

Text #1
ID : 5
Format : UTF-8
Codec ID : S_TEXT/UTF8
Codec ID/Info : UTF-8 Plain Text
Duration : 1 h 43 min
Bit rate : 132 b/s
Count of elements : 1432
Stream size : 100 KiB (0%)
Language : Ukrainian
Default : No
Forced : No

Text #2
ID : 6
Format : UTF-8
Codec ID : S_TEXT/UTF8
Codec ID/Info : UTF-8 Plain Text
Duration : 1 h 42 min
Bit rate : 41 b/s
Count of elements : 1130
Stream size : 31.5 KiB (0%)
Language : English
Default : No
Forced : No
Скріншоти

Дякую Bohdan237 за наданий запис з ТБ

Джерело: &
Особиста оцінка: 7 - якщо багато не очікувати, то можна й глянути


Золотий реліз (завантажене не впливає на рейтинг)
 Трекер:    Зареєстрований   

Завантажити / скачати серіал українською



відео для новачків



 Зареєстрований:   2019-09-08 15:28
 Розмір:   7.3 GB 
 Оцінка серіалу:   7.6/10 (Голосів: 16)
   
Roman7Fedorak 
Свій


З нами з: 30.03.12
Востаннє: 24.11.20
Повідомлень: 135

2019-05-01 13:44  
качаю Happy
Anonymous 







2019-09-08 15:29  
Додав озвучення від 2+2.
vovajann 
Новенький


З нами з: 29.10.17
Востаннє: 17.11.20
Повідомлень: 1

2019-09-08 18:10  
Розчарування, це не та Зоряна Брама яку ми знали.
pvm65 
Свій


З нами з: 02.01.16
Востаннє: 25.11.20
Повідомлень: 113

2019-09-18 23:46  
Чому два imdb ?

А сам фільм повний шлак. (2/10)

Ваш часовий пояс: GMT + 2 Години

Нова тема   Відповісти