Час відплати / Destroyer (2018) Remux 1080p Ukr/Eng | Sub Eng

Нові коментарі

Нова тема   Відповісти
Автор Повідомлення
antik_2008 
Релізер і модератор відео


З нами з: 20.10.08
Востаннє: 19.06.19
Повідомлень: 2058

2019-04-30 14:47  
Час відплати / Destroyer (2018) Remux 1080p Ukr/Eng | Sub Eng

Час відплати / Destroyer (2018) Remux 1080p Ukr/Eng | Sub Eng


Жанр: бойовик, детектив, драма, кримінальний, трилер
Країна: США





Кінокомпанія: Automatik Entertainment
Режисер: Карін Кусама
Актори: Ніколь Кідман, Тобі Кеббелл, Тетяна Маслані, Себастіан Стен, Скут МакНейрі, Бредлі Вітфорд, Тобі Хасс, Бо Напп

Сюжет:
Лос-Анджелес ніколи не був найбезпечнішим містом у світі. Але місцеві поліцейські завжди роблять все можливе, щоб викорінити злочинність в цьому великому місті. Там працюють різні люди: як потужні чоловіки, так і тендітні дівчата. Ерін Белл ніколи не була фізично сильною, але саме її разом із напарником на ім'я Кріс відправили на небезпечне завдання під прикриттям: вони повинні потрапити до банди грабіжників. Найскладніше в цьому те, що кожен день вони ризикують життям, а дівчина мала необережність закохатися у хлопця. Звичайно ж, у найвідповідальніший момент усе пішло не за планом – Кріс загинув. Пройшло багато років з того часу, а минуле все не відпускає Ерін. Вона бачить мету свого життя в помсті. Тепер вона набагато сильніша й у ній немає жалості до кривдників.


Тривалість: 02:00:57
Якість: Remux 1080p
Відео:
кодек:
розмір кадру: 1920x1080
бітрейт: 34572 кб/с

Аудіо # 1:
мова: українська
переклад: професійний дубльований
кодек: 2.0
бітрейт: 192 кб/с

Аудіо # 2:
мова: англійська
переклад: оригінал
кодек: -HD MA 5.1
бітрейт: 3388 кб/с

Джерело озвучення:


Субтитри:
мова: англійська
тип: пререндерні
формат: *.pgs
Info
General
Complete name : Destroyer (2018) Blu-Ray Remux [ukr,eng].
Format :
Format version : Version 4
File size : 32.2 GiB
Duration : 2 h 0 min
Overall bit rate mode : Variable
Overall bit rate : 38.2 Mb/s
Movie name : Destroyer (2018) Blu-Ray Remux [ukr,eng]
Encoded date : UTC 2019-04-30 11:16:56
Writing application : v30.1.0 ('Forever And More') 64-bit
Writing library : libebml v1.3.6 + v1.4.9

Video
ID : 1
Format : AVC
Format/Info : Advanced Video Codec
Format profile : [email protected]
Format settings : CABAC / 4 Ref Frames
Format settings, CABAC : Yes
Format settings, RefFrames : 4 frames
Format settings, GOP : M=3, N=12
Codec ID : V_MPEG4/ISO/AVC
Duration : 2 h 0 min
Bit rate mode : Variable
Bit rate : 34.6 Mb/s
Maximum bit rate : 37.0 Mb/s
Width : 1 920 pixels
Height : 1 080 pixels
Display aspect ratio : 16:9
Frame rate mode : Constant
Frame rate : 23.976 (24000/1001) FPS
Color space : YUV
Chroma subsampling : 4:2:0
Bit depth : 8 bits
Scan type : Progressive
Bits/(Pixel*Frame) : 0.695
Stream size : 29.2 GiB (91%)
Default : Yes
Forced : No

Audio #1
ID : 2
Format : AC-3
Format/Info : Audio Coding 3
Commercial name : Dolby Digital
Codec ID : A_AC3
Duration : 2 h 0 min
Bit rate mode : Constant
Bit rate : 192 kb/s
Channel(s) : 2 channels
Channel layout : L R
Sampling rate : 48.0 kHz
Frame rate : 31.250 FPS (1536 SPF)
Bit depth : 16 bits
Compression mode : Lossy
Stream size : 166 MiB (1%)
Title : , 2 ch, 192 Кбт/с
Language : Ukrainian
Service kind : Complete Main
Default : Yes
Forced : No

Audio #2
ID : 3
Format : XLL
Format/Info : Digital Theater Systems
Commercial name : -HD Master Audio
Codec ID : A_DTS
Duration : 2 h 0 min
Bit rate mode : Variable
Bit rate : 3 388 kb/s
Channel(s) : 6 channels
Channel layout : C L R Ls Rs LFE
Sampling rate : 48.0 kHz
Frame rate : 93.750 FPS (512 SPF)
Bit depth : 24 bits
Compression mode : Lossless
Stream size : 2.86 GiB (9%)
Title : -HD MA, 6 ch, 3388 Кбт/с
Language : English
Default : No
Forced : No

Text
ID : 4
Format : PGS
Muxing mode : zlib
Codec ID : S_HDMV/PGS
Codec ID/Info : Picture based subtitle format used on BDs/HD-DVDs
Duration : 1 h 59 min
Bit rate : 27.3 kb/s
Count of elements : 2832
Stream size : 23.3 MiB (0%)
Title : Full
Language : English
Default : Yes
Forced : No
Скріншоти



Джерело: & &
Особиста оцінка: 7 - моїй подрузі не сподобалося


Золотий реліз (завантажене не впливає на рейтинг)
 Трекер:    Зареєстрований   

Завантажити / скачати фільм українською



відео для новачків



 Зареєстрований:   2019-04-30 14:47
 Розмір:   32.25 GB 
 Оцінка фільму:   9.6/10 (Голосів: 10)
   
Інші релізи
   Час відплати / Destroyer (2018) 1080p H.265 Ukr/Eng | Sub Eng -Star-Lord-  8 / 0   7.15 GB   2019-05-03 10:35 
   Час відплати / Destroyer (2018) ssTAss  17 / 0   1.36 GB   2019-04-30 22:13 
   Час відплати / Destroyer (2018) Ukr/Eng antik_2008  28 / 0   2.17 GB   2019-04-30 18:13 
   Час відплати / Destroyer (2018) 1080p Ukr/Eng | Sub Eng staf777  11 / 0   16.64 GB   2019-04-30 16:09 
   Час відплати / Destroyer (2018) AVC Ukr/Eng | Sub Eng 11FrYkT  19 / 0   2.02 GB   2019-04-30 15:19 
   Час відплати / Destroyer (2018) 720p Ukr/Eng | Sub Eng 11FrYkT  9 / 0   7.3 GB   2019-04-30 15:18 
Ваш часовий пояс: GMT + 2 Години

Нова тема   Відповісти