Мері Поппінс повертається / Mary Poppins Returns (2018) UHD 4K 2160p HDR x265 Ukr/Eng | Sub Eng

Нові коментарі

Нова тема   Відповісти
Останній раз роздавалося yuri_ag (2020-09-07)
Автор Повідомлення
Babamin 
Свій


З нами з: 29.12.15
Востаннє: 06.09.20
Повідомлень: 68

2019-04-29 06:37  
Мері Поппінс повертається / Mary Poppins Returns (2018) UHD 4K 2160p HDR x265 Ukr/Eng | Sub Eng

Мері Поппінс повертається / Mary Poppins Returns (2018) UHD 4K 2160p HDR x265 Ukr/Eng | Sub Eng



Жанр: комедія, мюзикл, сімейний, фентезі
Країна: США



Кінокомпанія: Walt Disney Pictures
Режисер: Роб Маршалл
Актори: Емілі Блант, Лін-Мануель Міранда, Бен Вішоу, Емілі Мортімер, Піксі Дейвіс, Натанаель Салех, Джоел Довсон, Джулі Волтерс, Меріл Стріп, Колін Ферт та інші

Сюжет:
У сірому та похмурому Лондоні 30-х років ХХ століття явно не вистачає трохи фарб і магії. Джейн і Майкл Бенкс живуть у затишному будинку на Черрі Трі Лейн і виховують трьох дітей. Дорослі за постійними клопотами вже давно забули, що таке мріяти, насолоджуватися життям. Але виправити це несподівано вирішила жінка, яка завжди приходить вчасно – Мері Поппінс. Колись вона виховувала Джейн і Майкла, тепер пора принести трохи магії й у життя молодших представників сімейства. Разом із оптимістичним ліхтарником Джеком вони дадуть багато радості для сімейства Бенкс і розфарбують їх життя всілякими фарбами.


Тривалість: 02:10:29
Якість: UltraHD 4K 2160p
Контейнер:

Відео:
кодек: H.265
розмір кадру: 3840 х 1608
бітрейт: 22,4 Мб/с
бітова глибина: 10 біт
кольоровий простір: BT.2020 (HDR)

Аудіо # 1:
мова: українська
переклад: професійний дубльований | студія LeDoyen
кодек: 5.1
бітрейт: 1536 кб/с

Аудіо # 2:
мова: українська
переклад: професійний дубльований | студія LeDoyen
кодек: 5.1
бітрейт: 640 кб/с

Аудіо # 3:
мова: англійська
переклад: оригінал
кодек: 5.1
бітрейт: 640 кб/с

Субтитри
мова: англійська
тип: програмні (м'які)
формат: *.srt
Info:
General
Complete name : Mary.Poppins.Returns.(2018).UHD-.4K.2160p.HDR.x265-Hurtom.
Format :
Format version : Version 4
File size : 23.0 GiB
Duration : 2 h 10 min
Overall bit rate : 25.2 Mb/s
Movie name : Mary Poppins Returns (2018) UHD- 4K 2160p HDR x265 -Hurtom
Encoded date : UTC 2019-04-29 02:58:14
Writing application : v33.1.0 ('Primrose') 64-bit
Writing library : libebml v1.3.7 + v1.5.0

Video
ID : 1
Format : HEVC
Format/Info : High Efficiency Video Coding
Commercial name : HDR10
Format profile : Main [email protected]@High
Codec ID : V_MPEGH/ISO/HEVC
Duration : 2 h 10 min
Bit rate : 22.4 Mb/s
Width : 3 840 pixels
Height : 1 608 pixels
Display aspect ratio : 2.40:1
Frame rate mode : Constant
Frame rate : 23.976 (24000/1001) FPS
Color space : YUV
Chroma subsampling : 4:2:0 (Type 2)
Bit depth : 10 bits
Bits/(Pixel*Frame) : 0.151
Stream size : 20.4 GiB (89%)
Title : Mary.Poppins.Returns.(2018).UHD-.4K.2160p.HDR.x265-Hurtom
Writing library : x265 2.9+35-bad4e598cac7:[Windows][GCC 6.3.0][64 bit] 10bit
Encoding settings : cpuid=1111039 / frame-threads=4 / numa-pools=26 / wpp / no-pmode / no-pme / no-psnr / no-ssim / log-level=2 / input-csp=1 / input-res=3840x1608 / interlace=0 / total-frames=187713 / level-idc=51 / high-tier=1 / uhd-bd=0 / ref=4 / no-allow-non-conformance / repeat-headers / annexb / aud / no-hrd / info / hash=0 / no-temporal-layers / no-open-gop / min-keyint=23 / keyint=250 / gop-lookahead=0 / bframes=7 / b-adapt=2 / b-pyramid / bframe-bias=0 / rc-lookahead=12 / lookahead-slices=4 / scenecut=40 / radl=0 / no-splice / no-intra-refresh / ctu=64 / min-cu-size=8 / no-rect / no-amp / max-tu-size=32 / tu-inter-depth=1 / tu-intra-depth=1 / limit-tu=0 / rdoq-level=2 / dynamic-rd=0.00 / no-ssim-rd / signhide / no-tskip / nr-intra=0 / nr-inter=0 / no-constrained-intra / strong-intra-smoothing / max-merge=5 / limit-refs=3 / no-limit-modes / me=3 / subme=7 / merange=57 / temporal-mvp / weightp / weightb / no-analyze-src-pics / deblock=0:0 / no-sao / no-sao-non-deblock / rd=3 / no-early-skip / no-rskip / no-fast-intra / no-tskip-fast / no-cu-lossless / no-b-intra / no-splitrd-skip / rdpenalty=0 / psy-rd=2.20 / psy-rdoq=1.00 / no-rd-refine / no-lossless / cbqpoffs=0 / crqpoffs=0 / rc=crf / crf=15.5 / qcomp=0.62 / qpstep=3 / stats-write=0 / stats-read=0 / vbv-maxrate=160000 / vbv-bufsize=160000 / vbv-init=0.9 / crf-max=0.0 / crf-min=0.0 / ipratio=1.25 / pbratio=1.15 / aq-mode=3 / aq-strength=0.70 / cutree / zone-count=2 / zones: / start-frame=0 / end-frame=9525 / bitrate-factor=1.200000 / zones: / start-frame=179458 / end-frame=187712 / bitrate-factor=0.600000 / no-strict-cbr / qg-size=32 / no-rc-grain / qpmax=69 / qpmin=0 / no-const-vbv / sar=1 / overscan=0 / videoformat=5 / range=0 / colorprim=9 / transfer=16 / colormatrix=9 / chromaloc=1 / chromaloc-top=2 / chromaloc-bottom=2 / display-window=0 / master-display=G(13250,34500)B(7500,3000)R(34000,16000)WP(15635,16450)L(10000000,1) / max-cll=0,0 / min-luma=0 / max-luma=1023 / log2-max-poc-lsb=8 / vui-timing-info / vui-hrd-info / slices=1 / no-opt-qp-pps / no-opt-ref-list-length-pps / no-multi-pass-opt-rps / scenecut-bias=0.05 / no-opt-cu-delta-qp / no-aq-motion / hdr / hdr-opt / no-dhdr10-opt / no-idr-recovery-sei / analysis-reuse-level=5 / scale-factor=0 / refine-intra=0 / refine-inter=0 / refine-mv=0 / refine-ctu-distortion=0 / no-limit-sao / ctu-info=0 / no-lowpass-dct / refine-analysis-type=0 / copy-pic=1 / max-ausize-factor=1.0 / no-dynamic-refine / no-single-sei / no-hevc-aq / qp-adaptation-range=1.00
Language : English
Default : Yes
Forced : No
Color range : Limited
Color primaries : BT.2020
Transfer characteristics : PQ
Matrix coefficients : BT.2020 non-constant
Mastering display color primaries : Display P3
Mastering display luminance : min: 0.0001 cd/m2, max: 1000 cd/m2

Audio #1
ID : 2
Format :
Format/Info : Digital Theater Systems
Codec ID : A_DTS
Duration : 2 h 10 min
Bit rate mode : Constant
Bit rate : 1 509 kb/s
Channel(s) : 6 channels
Channel layout : C L R Ls Rs LFE
Sampling rate : 48.0 kHz
Frame rate : 93.750 FPS (512 SPF)
Bit depth : 24 bits
Compression mode : Lossy
Stream size : 1.38 GiB (6%)
Title : студiя LeDoyen
Language : Ukrainian
Default : Yes
Forced : No

Audio #2
ID : 3
Format : AC-3
Format/Info : Audio Coding 3
Commercial name : Dolby Digital
Codec ID : A_AC3
Duration : 2 h 10 min
Bit rate mode : Constant
Bit rate : 640 kb/s
Channel(s) : 6 channels
Channel layout : L R C LFE Ls Rs
Sampling rate : 48.0 kHz
Frame rate : 31.250 FPS (1536 SPF)
Bit depth : 16 bits
Compression mode : Lossy
Stream size : 597 MiB (3%)
Title : студiя LeDoyen
Language : Ukrainian
Service kind : Complete Main
Default : No
Forced : No

Audio #3
ID : 4
Format : AC-3
Format/Info : Audio Coding 3
Commercial name : Dolby Digital
Codec ID : A_AC3
Duration : 2 h 10 min
Bit rate mode : Constant
Bit rate : 640 kb/s
Channel(s) : 6 channels
Channel layout : L R C LFE Ls Rs
Sampling rate : 48.0 kHz
Frame rate : 31.250 FPS (1536 SPF)
Bit depth : 16 bits
Compression mode : Lossy
Stream size : 597 MiB (3%)
Language : English
Service kind : Complete Main
Default : No
Forced : No

Text
ID : 5
Format : UTF-8
Codec ID : S_TEXT/UTF8
Codec ID/Info : UTF-8 Plain Text
Duration : 2 h 5 min
Bit rate : 84 b/s
Count of elements : 2459
Stream size : 77.7 KiB (0%)
Title : SDH
Language : English
Default : No
Forced : No

Menu
00:00:00.000 : en:00:00:00.000
00:06:38.064 : en:00:06:38.064
00:15:22.046 : en:00:15:22.046
00:19:18.032 : en:00:19:18.032
00:26:01.894 : en:00:26:01.894
00:33:10.405 : en:00:33:10.405
00:39:05.426 : en:00:39:05.426
00:46:11.352 : en:00:46:11.352
00:57:34.034 : en:00:57:34.034
01:06:14.387 : en:01:06:14.387
01:15:55.801 : en:01:15:55.801
01:21:51.365 : en:01:21:51.365
01:32:18.199 : en:01:32:18.199
01:36:29.826 : en:01:36:29.826
01:53:58.331 : en:01:53:58.331
02:03:47.962 : en:02:03:47.962
Скріншоти:











Джерело: &

Подяка пану Hanway за синхронізацію звуку.


 Трекер:    Зареєстрований   

Завантажити / скачати фільм українською



відео для новачків



 Зареєстрований:   2019-04-29 06:37
 Розмір:   22.98 GB 
 Оцінка фільму:   5.4/10 (Голосів: 5)
   
armogun 
Попереджень: 1
Попереджень: 1 


З нами з: 04.05.13
Востаннє: 16.09.20
Повідомлень: 686

2019-05-01 11:07  
Що за мавпи конвертують FHD в UHD і який в цьому зміст?
Babamin 
Свій


З нами з: 29.12.15
Востаннє: 06.09.20
Повідомлень: 68

2019-05-01 14:28  
armogun написано:
Що за мавпи конвертують FHD в UHD і який в цьому зміст?

Весняне загострення?

armogun 
Попереджень: 1
Попереджень: 1 


З нами з: 04.05.13
Востаннє: 16.09.20
Повідомлень: 686

2019-05-02 00:34  
[quote="armogun"]Весняне загострення?[/quote]
Не думаю. Таке можна спостерігвти впродовж року. Тим більше мавпи в тропіках більше , де літо

Ваш часовий пояс: GMT + 2 Години

Нова тема   Відповісти