Формула 1. Сезон 2019. Етап 4. Гран-Прі Азербайджану. Кваліфікація (27.04.2019) 720p Ukr/Eng

Нові коментарі

Нова тема   Відповісти
Останній раз роздавалося VicCob (2020-10-25)
Автор Повідомлення
sergiyko.5 
VIP


З нами з: 25.02.16
Востаннє: 25.10.20
Повідомлень: 3615

2019-04-27 21:22  
Формула 1. Сезон 2019. Етап 4. Гран-Прі Азербайджану. Кваліфікація (27.04.2019) 720p Ukr/Eng

Формула 1. Сезон 2019. Етап 4. Гран-Прі Азербайджану. Кваліфікація (27.04.2019) 720p Ukr/Eng

Жанр: Перегони Формули 1
Країна: Азербайджан
Телеканал: F1 TV
Коментатор: Максим Подзігун

Опис:
Кваліфікація четвертого етапу Гран-Прі Азербайджану 2019 року.


Якість:

Відео:кодек: розмір кадру: 1280 х 720 бітрейт: 4000 кб/с
Аудіо # 1: мова: українська кодек: MP2 2.0 бітрейт: 192 кб/с
Аудіо # 2: мова: англійська кодек: 2.0 бітрейт: 90 кб/с
Тривалість:
02:08:14
Про файл:
General
Unique ID : 206770519335662387556848192730070646567 (0x9B8E8DB0E5FCDDE05DCDCA280FFDFF27)
Complete name : G:\Torrents2\SPORT\Formula 1\F1.2019.Qualifying\F1.2019.04.Azerbaijan.Qualifying.720p..Ukr.Eng.
Format :
Format version : Version 4
File size : 3.81 GiB
Duration : 2 h 8 min
Overall bit rate : 4 254 kb/s
Encoded date : UTC 2019-04-27 19:16:52
Writing application : v33.1.0 ('Primrose') 64-bit
Writing library : libebml v1.3.7 + v1.5.0

Video
ID : 1
Format : AVC
Format/Info : Advanced Video Codec
Format profile : [email protected]
Format settings : CABAC / 4 Ref Frames
Format settings, CABAC : Yes
Format settings, ReFrames : 4 frames
Format settings, GOP : M=4, N=50
Codec ID : V_MPEG4/ISO/AVC
Duration : 2 h 8 min
Bit rate mode : Constant
Bit rate : 4 000 kb/s
Width : 1 280 pixels
Height : 720 pixels
Display aspect ratio : 16:9
Frame rate mode : Constant
Frame rate : 25.000 FPS
Color space : YUV
Chroma subsampling : 4:2:0
Bit depth : 8 bits
Scan type : Progressive
Bits/(Pixel*Frame) : 0.174
Stream size : 3.58 GiB (94%)
Language : English
Default : Yes
Forced : No

Audio #1
ID : 2
Format : MPEG Audio
Format version : Version 1
Format profile : Layer 2
Codec ID : A_MPEG/L2
Codec ID/Hint : MP2
Duration : 2 h 8 min
Bit rate mode : Constant
Bit rate : 192 kb/s
Channel(s) : 2 channels
Sampling rate : 48.0 kHz
Frame rate : 41.667 FPS (1152 SPF)
Compression mode : Lossy
Delay relative to video : -2 s 0 ms
Stream size : 176 MiB (5%)
Language : Ukrainian
Default : Yes
Forced : Yes

Audio #2
ID : 3
Format : LC
Format/Info : Advanced Audio Codec Low Complexity
Codec ID : A_AAC-2
Duration : 2 h 8 min
Bit rate : 61.7 kb/s
Channel(s) : 2 channels
Channel layout : L R
Sampling rate : 44.1 kHz
Frame rate : 43.066 FPS (1024 SPF)
Compression mode : Lossy
Delay relative to video : -2 s 0 ms
Stream size : 56.6 MiB (1%)
Language : English
Default : No
Forced : No
Скріншоти:



Зведення: sergiyko


 Трекер:    Зареєстрований   

Завантажити / скачати торрент



відео для новачків



 Зареєстрований:   2019-04-27 21:22
 Розмір:   3.81 GB 
 Оцінка:   10/10 (Голосів: 10)
   
DimitriosXO 
Новенький


З нами з: 06.07.17
Востаннє: 24.10.20
Повідомлень: 8

2019-04-27 21:23  
Спасибі! Нарешті! Ато я вже жопова вмикав
armogun 
Попереджень: 1
Попереджень: 1 


З нами з: 04.05.13
Востаннє: 23.10.20
Повідомлень: 700

2019-04-27 21:30  
це катастрофа а не траса. Я мельбурн 10 годин катав щоб пул взяти а тут буде взагалі ад

https://drive.google.com/open?id=0B9Z6RFJO-pNKOWJ4azVvQnR3OGJxRVhYY1RLdHRzTzU1UktF

forsage29 
Новенький


З нами з: 24.07.12
Востаннє: 18.10.20
Повідомлень: 20

2019-04-27 21:31  
Супер!!! Дуже дякую!
VicCob 
Свій


З нами з: 16.06.10
Востаннє: 25.10.20
Повідомлень: 58

2019-04-27 21:57  
Дякую!
Methos_5000 
Новенький


З нами з: 04.05.17
Востаннє: 18.02.20
Повідомлень: 6

2019-05-02 14:48  
Дякую!
Ваш часовий пояс: GMT + 2 Години

Нова тема   Відповісти