Титани (Сезон 1) / Titans (Season 1) (2018) 720p Eng | Sub Ukr

Нові коментарі

Нова тема   Відповісти
Автор Повідомлення
pskrm 
Свій


З нами з: 04.03.17
Востаннє: 17.08.19
Повідомлень: 99

2019-04-26 22:19  
Титани (Сезон 1) / Titans (Season 1) (2018) 720p Eng | Sub Ukr

Титани (Сезон 1) / Titans (Season 1) (2018) 720p Eng | Sub Ukr


Жанр: екшн, пригодницький, драма
Країна: США



Кінокомпанія: Weed Road Pictures
Режисер: Ґлен Вінтер
Актори: Брентон Твейтс, Анна Діон, Теаган Крофт, Раян Поттер

Сюжет:
Коли Дік Ґрейсон (Робін) і Рейчел Роз (Ворона) потребують допомоги, щоб впоратися із проблемою, яка загрожує усій планеті, вони об'єднують зусилля з Коріандр (Старфаєр) і Ґаром Лоґаном (Хлопець-звір), щоб сформувати команду «Титани».


Тривалість: 00:50:00
Перелік серій

01 «Титани»
02 «Сокіл та Голубка»
03 «Походження»
04 «Горе-чати»
05 «Разом»
06 «Джейсон Тодд»
07 «Божевільня»
08 «Донна Трой»
09 «Генк та Дон»
10 «Коріандр»
11 «Дік Ґрейсон»
Якість:
Відео:
кодек:
розмір кадру: 1280 х 640
бітрейт: 3111 кб/с

Аудіо:
мова: англійська
переклад: оригінал
кодек: 2.0
бітрейт: 168 кб/с

Субтитри:
мова: українська
тип: програмні (м'які)
формат: *.srt

Субтитри: власний переклад
Info

General
Complete name : G:\Files\TBA\Titans\Titans.Season.1\Titans.s01e01.mp4
Format : MPEG-4
Format profile : Base Media / Version 2
Codec ID : mp42 (isom/iso2/avc1/mp41)
File size : 1.16 GiB
Duration : 50 min 42 s
Overall bit rate mode : Variable
Overall bit rate : 3 279 kb/s
Encoded date : UTC 2019-01-17 22:49:43
Tagged date : UTC 2019-01-17 22:49:43
Writing application : HandBrake 1.1.2 2018090500

Video
ID : 1
Format : AVC
Format/Info : Advanced Video Codec
Format profile : [email protected]
Format settings : CABAC / 5 Ref Frames
Format settings, CABAC : Yes
Format settings, RefFrames : 5 frames
Codec ID : avc1
Codec ID/Info : Advanced Video Coding
Duration : 50 min 42 s
Bit rate : 3 111 kb/s
Width : 1 280 pixels
Height : 640 pixels
Display aspect ratio : 2.000
Frame rate mode : Variable
Frame rate : 23.976 (24000/1001) FPS
Minimum frame rate : 23.974 FPS
Maximum frame rate : 23.981 FPS
Color space : YUV
Chroma subsampling : 4:2:0
Bit depth : 8 bits
Scan type : Progressive
Bits/(Pixel*Frame) : 0.158
Stream size : 1.10 GiB (95%)
Writing library : core 155 r2901 7d0ff22
Encoding settings : cabac=1 / ref=5 / deblock=1:0:0 / analyse=0x1:0x111 / me=hex / subme=8 / psy=1 / psy_rd=1.00:0.00 / mixed_ref=1 / me_range=16 / chroma_me=1 / trellis=2 / 8x8dct=0 / cqm=0 / deadzone=21,11 / fast_pskip=1 / chroma_qp_offset=-2 / threads=6 / lookahead_threads=1 / sliced_threads=0 / nr=0 / decimate=1 / interlaced=0 / bluray_compat=0 / constrained_intra=0 / bframes=3 / b_pyramid=2 / b_adapt=1 / b_bias=0 / direct=3 / weightb=1 / open_gop=0 / weightp=2 / keyint=240 / keyint_min=24 / scenecut=40 / intra_refresh=0 / rc_lookahead=50 / rc=crf / mbtree=1 / crf=15.0 / qcomp=0.60 / qpmin=0 / qpmax=69 / qpstep=4 / vbv_maxrate=20000 / vbv_bufsize=25000 / crf_max=0.0 / nal_hrd=none / filler=0 / ip_ratio=1.40 / aq=1:1.00
Encoded date : UTC 2019-01-17 22:49:43
Tagged date : UTC 2019-01-17 22:49:43
Color range : Limited
Color primaries : BT.709
Transfer characteristics : BT.709
Matrix coefficients : BT.709
Codec configuration box : avcC

Audio
ID : 2
Format : LC
Format/Info : Advanced Audio Codec Low Complexity
Codec ID : mp4a-40-2
Duration : 50 min 42 s
Bit rate mode : Variable
Bit rate : 160 kb/s
Channel(s) : 2 channels
Channel layout : L R
Sampling rate : 48.0 kHz
Frame rate : 46.875 FPS (1024 SPF)
Compression mode : Lossy
Stream size : 58.2 MiB (5%)
Title : Stereo / Stereo
Language : English
Default : Yes
Alternate group : 1
Encoded date : UTC 2019-01-17 22:49:43
Tagged date : UTC 2019-01-17 22:49:43
Text
ID : 3
Format : Timed Text
Muxing mode : sbtl
Codec ID : tx3g
Duration : 49 min 14 s
Bit rate mode : Variable
Bit rate : 51 b/s
Stream size : 18.2 KiB (0%)
Language : Ukrainian
Default : Yes
Forced : No
Alternate group : 3
Encoded date : UTC 2019-01-17 22:49:43
Tagged date : UTC 2019-01-17 22:49:43
Скріншоти


Джерело:
Особиста оцінка: 8 - мені сподобалося


Золотий реліз (завантажене не впливає на рейтинг)
 Трекер:    Зареєстрований   

Завантажити / скачати серіал українською



відео для новачків



 Зареєстрований:   2019-05-16 22:23
 Розмір:   10.92 GB 
 Оцінка серіалу:   9.8/10 (Голосів: 10)
   
11FrYkT 
Модератор відео


З нами з: 20.02.11
Востаннє: 21.08.19
Повідомлень: 6135

2019-04-27 11:48  
pskrm написано:
розмір кадру: 1280 х 640

скріншоти не відповідають вказаному розміру

Ліхтарник 
VIP


З нами з: 16.09.14
Востаннє: 20.08.19
Повідомлень: 1384

2019-04-27 14:04  
Дякую за переклад, але видаляйте англсаби та зробіть більший шрифт до укрсабів
_hellisa 
Свій


З нами з: 26.02.17
Востаннє: 19.08.19
Повідомлень: 120

2019-04-27 19:51  
Ліхтарник
Дякуємо за відгук. Субтитри на те й м'які, щоб кожен міг підлаштувати їх на власний смак у плеєрі.

Ліхтарник 
VIP


З нами з: 16.09.14
Востаннє: 20.08.19
Повідомлень: 1384

2019-04-27 20:16  
_hellisa
на телефоні то важко зробити.

Electroz 
Відео Гуртом - підтримка та поширення
Відео Гуртом - підтримка та поширення


З нами з: 18.09.14
Востаннє: 21.08.19
Повідомлень: 3529

2019-04-27 21:08  
Ліхтарник
Спробуйте MX Player, там це легко зробити.

Ліхтарник 
VIP


З нами з: 16.09.14
Востаннє: 20.08.19
Повідомлень: 1384

2019-04-27 22:00  
Electroz
дякую, от тепер буду в дорозі передивлятися весь серіал Happy

pskrm 
Свій


З нами з: 04.03.17
Востаннє: 17.08.19
Повідомлень: 99

2019-05-16 22:24  
Реліз оновлено!

1 сезон повністю!

Ваш часовий пояс: GMT + 2 Години

Нова тема   Відповісти