Бамблбі / Bumblebee (2018) 1080p H.265 Ukr/Eng | Sub Ukr/Eng

Нові коментарі

Нова тема   Відповісти
Автор Повідомлення
Anonymous 







2019-04-26 16:32  
Бамблбі / Bumblebee (2018) 1080p H.265 Ukr/Eng | Sub Ukr/Eng

Бамблбі / Bumblebee (2018) 1080p H.265 Ukr/Eng | Sub Ukr/Eng


Жанр: бойовик, пригодницький, фантастика
Країна: США
Кінокомпанія: Paramount Pictures, Di Bonaventura Pictures, Hasbro Studios
Режисер: Тревіс Найт
Актори: Ділан О'Брайен, Гейлі Стайнфелд, Джастін Теру, Джон Сіна, Анджела Бассетт, Памела Адлон, Грей ДеЛісл, Пітер Каллен, Кеннет Чої

Сюжет:
У 1987 році на Землю потрапила одна істота, яка тут бути не повинна. Його звуть Бамблбі і він трансформер – робот із іншої планети, який може набувати форми земних машин. На батьківщині деякі його називають злочинцем, через що йому довелося бігти на Землю. Так Бамблбі потрапив до одного з каліфорнійських містечок біля узбережжя океану. Прихистила його вісімнадцятирічна дівчина Чарлі, яка, як і багато підлітків, намагається знайти своє місце в цьому світі. І разом дівчина та трансформер стануть справжньою родиною. На жаль, за Бамблбі буде йти хвіст, який хоче покарати злочинця. І тоді він зобов'язаний захищати Землю та людство від нових ворогів.

Тривалість: 01:53:53
Якість:
Відео:
кодек: H.265 (HEVC)
розмір кадру: 1920 x 1080
бітрейт: 9 787 кб/с
бітова глибина: 10 біт
Увага! Перед завантаженням переконайтесь, що ваш пристрій відтворення (та/або ПЗ) підтримує H.265 (HEVC)

Аудіо # 1:
мова: українська
переклад: професійний дубльований
кодек: AC-3 2.0 [стерео]
бітрейт: 192 кб/с

Аудіо # 2:
мова: англійська
переклад: оригінал
кодек: AC-3 5.1
бітрейт: 640 кб/с

Субтитри # 1:
мова: українська (Forced),
тип: програмні (м'які)
формат: *.srt

Субтитри # 2:
мова: українська (Full),
тип: програмні (м'які)
формат: *.srt

Субтитри # 3:
мова: англійська (Full),
тип: програмні (м'які)
формат: *.srt

Субтитри # 4:
мова: англійська (SDH),
тип: програмні (м'які)
формат: *.srt


Info
Код:
General
Unique ID                                : 72502867962238382517051628780678736048 (0x368B8B60D437A17108AD1E6BBA3EE8B0)
Complete name                            : F:\Video\Bumblebee (2018) 1080p H.265 [UKR_ENG] [Hurtom].
Format                                   :
Format version                           : Version 4 / Version 2
File size                                : 8.45 GiB
Duration                                 : 1 h 53 min
Overall bit rate                         : 10.6 Mb/s
Movie name                               : Bumblebee (2018)
Encoded date                             : UTC 2019-04-29 17:55:36
Writing application                      : v20.0.0 ('I Am The Sun') 64-bit
Writing library                          : libebml v1.3.5 + v1.4.8
Cover                                    : Yes
Attachments                              : cover.jpg

Video
ID                                       : 1
Format                                   : HEVC
Format/Info                              : High Efficiency Video Coding
Format profile                           : Main [email protected]@High
Codec ID                                 : V_MPEGH/ISO/HEVC
Duration                                 : 1 h 53 min
Bit rate                                 : 9 786 kb/s
Width                                    : 1 920 pixels
Height                                   : 1 080 pixels
Display aspect ratio                     : 16:9
Frame rate mode                          : Constant
Frame rate                               : 23.976 (24000/1001) FPS
Color space                              : YUV
Chroma subsampling                       : 4:2:0
Bit depth                                : 10 bits
Bits/(Pixel*Frame)                       : 0.197
Stream size                              : 7.79 GiB (92%)
Title                                    : Bumblebee (2018)
Writing library                          : x265 2.9+9-f74003e88622:[Windows][GCC 8.2.0][64 bit] 10bit
Encoding settings                        : cpuid=1111039 / frame-threads=13 / numa-pools=12 / wpp / no-pmode / no-pme / no-psnr / no-ssim / log-level=3 / input-csp=1 / input-res=1920x1080 / interlace=0 / total-frames=0 / level-idc=41 / high-tier=1 / uhd-bd=0 / ref=4 / allow-non-conformance / no-repeat-headers / annexb / no-aud / no-hrd / info / hash=0 / no-temporal-layers / open-gop / min-keyint=24 / keyint=240 / gop-lookahead=0 / bframes=9 / b-adapt=2 / b-pyramid / bframe-bias=0 / rc-lookahead=40 / lookahead-slices=4 / scenecut=40 / radl=0 / no-intra-refresh / ctu=64 / min-cu-size=8 / rect / no-amp / max-tu-size=32 / tu-inter-depth=3 / tu-intra-depth=3 / limit-tu=0 / rdoq-level=2 / dynamic-rd=0.00 / no-ssim-rd / signhide / no-tskip / nr-intra=0 / nr-inter=0 / no-constrained-intra / no-strong-intra-smoothing / max-merge=3 / limit-refs=3 / no-limit-modes / me=3 / subme=7 / merange=57 / temporal-mvp / weightp / weightb / no-analyze-src-pics / deblock=-3:-3 / no-sao / no-sao-non-deblock / rd=6 / no-early-skip / rskip / no-fast-intra / no-tskip-fast / no-cu-lossless / no-b-intra / no-splitrd-skip / rdpenalty=0 / psy-rd=2.00 / psy-rdoq=1.00 / no-rd-refine / no-lossless / cbqpoffs=0 / crqpoffs=0 / rc=crf / crf=19.0 / qcomp=0.70 / qpstep=4 / stats-write=0 / stats-read=0 / vbv-maxrate=50000 / vbv-bufsize=50000 / vbv-init=0.9 / crf-max=0.0 / crf-min=0.0 / ipratio=1.40 / pbratio=1.30 / aq-mode=1 / aq-strength=1.00 / cutree / zone-count=0 / no-strict-cbr / qg-size=32 / no-rc-grain / qpmax=69 / qpmin=0 / no-const-vbv / sar=1 / overscan=0 / videoformat=5 / range=0 / colorprim=1 / transfer=1 / colormatrix=1 / chromaloc=0 / display-window=0 / max-cll=0,0 / min-luma=0 / max-luma=1023 / log2-max-poc-lsb=8 / vui-timing-info / vui-hrd-info / slices=1 / no-opt-qp-pps / no-opt-ref-list-length-pps / no-multi-pass-opt-rps / scenecut-bias=0.05 / no-opt-cu-delta-qp / no-aq-motion / no-hdr / no-hdr-opt / no-dhdr10-opt / no-idr-recovery-sei / analysis-reuse-level=5 / scale-factor=0 / refine-intra=0 / refine-inter=0 / refine-mv=0 / no-limit-sao / ctu-info=0 / no-lowpass-dct / refine-mv-type=0 / copy-pic=1 / max-ausize-factor=1.0 / no-dynamic-refine / no-single-sei
Default                                  : Yes
Forced                                   : No
Color range                              : Limited
Color primaries                          : BT.709
Transfer characteristics                 : BT.709
Matrix coefficients                      : BT.709

Audio #1
ID                                       : 2
Format                                   : AC-3
Format/Info                              : Audio Coding 3
Codec ID                                 : A_AC3
Duration                                 : 1 h 53 min
Bit rate mode                            : Constant
Bit rate                                 : 192 kb/s
Channel(s)                               : 2 channels
Channel positions                        : Front: L R
Sampling rate                            : 48.0 kHz
Frame rate                               : 31.250 FPS (1536 SPF)
Bit depth                                : 16 bits
Compression mode                         : Lossy
Stream size                              : 156 MiB (2%)
Title                                    : 2.0 @ 192 kbps
Language                                 : Ukrainian
Service kind                             : Complete Main
Default                                  : Yes
Forced                                   : Yes

Audio #2
ID                                       : 3
Format                                   : AC-3
Format/Info                              : Audio Coding 3
Codec ID                                 : A_AC3
Duration                                 : 1 h 53 min
Bit rate mode                            : Constant
Bit rate                                 : 640 kb/s
Channel(s)                               : 6 channels
Channel positions                        : Front: L C R, Side: L R, LFE
Sampling rate                            : 48.0 kHz
Frame rate                               : 31.250 FPS (1536 SPF)
Bit depth                                : 16 bits
Compression mode                         : Lossy
Stream size                              : 521 MiB (6%)
Title                                    : 5.1 @ 640 kbps
Language                                 : English
Service kind                             : Complete Main
Default                                  : No
Forced                                   : No

Text #1
ID                                       : 4
Format                                   : UTF-8
Codec ID                                 : S_TEXT/UTF8
Codec ID/Info                            : UTF-8 Plain Text
Duration                                 : 1 h 45 min
Bit rate                                 : 1 b/s
Count of elements                        : 25
Stream size                              : 1.16 KiB (0%)
Title                                    : Forced
Language                                 : Ukrainian
Default                                  : Yes
Forced                                   : Yes

Text #2
ID                                       : 5
Format                                   : UTF-8
Codec ID                                 : S_TEXT/UTF8
Codec ID/Info                            : UTF-8 Plain Text
Duration                                 : 1 h 48 min
Bit rate                                 : 67 b/s
Count of elements                        : 1189
Stream size                              : 53.9 KiB (0%)
Title                                    : Full
Language                                 : Ukrainian
Default                                  : No
Forced                                   : No

Text #3
ID                                       : 6
Format                                   : UTF-8
Codec ID                                 : S_TEXT/UTF8
Codec ID/Info                            : UTF-8 Plain Text
Duration                                 : 1 h 48 min
Bit rate                                 : 45 b/s
Count of elements                        : 1270
Stream size                              : 36.3 KiB (0%)
Title                                    : Full
Language                                 : English
Default                                  : No
Forced                                   : No

Text #4
ID                                       : 7
Format                                   : UTF-8
Codec ID                                 : S_TEXT/UTF8
Codec ID/Info                            : UTF-8 Plain Text
Duration                                 : 1 h 48 min
Bit rate                                 : 54 b/s
Count of elements                        : 1626
Stream size                              : 43.3 KiB (0%)
Title                                    : SDH
Language                                 : English
Default                                  : No
Forced                                   : No

Menu
00:00:00.000                             : en:00:00:00.000
00:03:30.710                             : en:00:03:30.710
00:12:16.486                             : en:00:12:16.486
00:16:56.724                             : en:00:16:56.724
00:21:03.053                             : en:00:21:03.053
00:26:42.601                             : en:00:26:42.601
00:32:33.326                             : en:00:32:33.326
00:39:44.090                             : en:00:39:44.090
00:45:18.591                             : en:00:45:18.591
00:50:43.624                             : en:00:50:43.624
00:54:16.253                             : en:00:54:16.253
01:01:10.709                             : en:01:01:10.709
01:06:26.900                             : en:01:06:26.900
01:11:39.545                             : en:01:11:39.545
01:16:08.105                             : en:01:16:08.105
01:21:37.142                             : en:01:21:37.142
01:25:08.603                             : en:01:25:08.603
01:30:15.410                             : en:01:30:15.410
01:36:46.801                             : en:01:36:46.801
01:43:52.560                             : en:01:43:52.560
01:49:43.202                             : en:01:49:43.202
Світлини





Джерело: &
Особиста оцінка: 0 - не дивився


Підтримати купівлю інших фільмів можна тут.


 Трекер:    Зареєстрований   

Завантажити / скачати фільм українською



відео для новачків



 Зареєстрований:   2019-04-29 20:08
 Розмір:   8.45 GB 
 Оцінка фільму:   8.8/10 (Голосів: 12)
   
Інші релізи
   Бамблбі / Bumblebee (2018) Ukr/Eng antik_2008  43 / 0   2.15 GB   2019-04-01 15:39 
   Бамблбі / Bumblebee (2018) 1080p Ukr/Eng | Sub Ukr/Eng antik_2008  17 / 0   15.49 GB   2019-04-01 14:44 
   Бамблбі / Bumblebee (2018) Remux 1080p Ukr/Eng | Sub Ukr/Eng antik_2008  8 / 0   28.98 GB   2019-04-01 14:29 
   Бамблбі / Bumblebee (2018) UHD Remux 4K 2160p HDR H.265 Ukr/Eng | Sub Ukr/Eng antik_2008  11 / 0   43.91 GB   2019-04-01 14:19 
   Бамблбі / Bumblebee (2018) 720p Ukr/Eng | Sub Ukr/Eng 11FrYkT  23 / 0   7.54 GB   2019-03-30 15:20 
   Бамблбі / Bumblebee (2018) AVC Ukr | Sub Ukr/Eng 11FrYkT  15 / 0   2.36 GB   2019-03-30 15:13 
   Бамблбі / Bumblebee (2018) Ukr/Eng | Sub Ukr/Eng uafilm.tv  11 / 1   1.47 GB   2019-03-30 01:24 
11FrYkT 
Модератор відео


З нами з: 20.02.11
Востаннє: 08.12.19
Повідомлень: 6382

2019-04-27 10:54  
-Star-Lord- ,
1 . Додайте укр саби
2. Вказуйте тему на придбання, бо якщо так піде далі то ми залишимося без звуку і з мегого так як і лайнів

Kingscorpion 
Новенький


З нами з: 29.12.10
Востаннє: 08.12.19
Повідомлень: 1

2019-04-28 17:01  
Не скачує(((
Anonymous 







2019-04-29 20:23  
Додав укр. субтитри.


Додано через 15 хвилин 16 секунд:

11FrYkT написано:
2. Вказуйте тему на придбання, бо якщо так піде далі то ми залишимося без звуку і з мегого так як і лайнів

В кожному релізі?

11FrYkT 
Модератор відео


З нами з: 20.02.11
Востаннє: 08.12.19
Повідомлень: 6382

2019-04-29 20:32  
-Star-Lord- написано:
В кожному релізі?

ні там де доріжка була куплена, тут додав я

Anonymous 







2019-04-29 20:36  
11FrYkT написано:
ні там де доріжка була куплена, тут додав я

Можу додавати до всіх, своїх майбутніх релізів.

11FrYkT 
Модератор відео


З нами з: 20.02.11
Востаннє: 08.12.19
Повідомлень: 6382

2019-04-29 20:59  
-Star-Lord- написано:
Можу додавати до всіх, своїх майбутніх релізів.

то думаю буде вводити в омани і те де ми явно купили ніяк не виділимо, поки тільки в ті що справді брали

Anonymous 







2019-04-29 21:09  
11FrYkT написано:
то думаю буде вводити в омани і те де ми явно купили ніяк не виділимо, поки тільки в ті що справді брали

Постараюся додавати, просто не завжди беру Ваш реліз, як основу. Тому не додаю собі.

Ваш часовий пояс: GMT + 2 Години

Нова тема   Відповісти