Феї: фантастичний порятунок / Tinker Bell and the Great Fairy Rescue (2010) 1080p Ukr/Eng | Sub Ukr/Eng

Нові коментарі

Нова тема   Відповісти
Автор Повідомлення
sergiyko.5 
VIP


З нами з: 25.02.16
Востаннє: 22.02.20
Повідомлень: 2940

2019-04-25 20:56  
Феї: фантастичний порятунок / Tinker Bell and the Great Fairy Rescue (2010) 1080p Ukr/Eng | Sub Ukr/Eng

Феї: фантастичний порятунок / Tinker Bell and the Great Fairy Rescue (2010) 1080p Ukr/Eng | Sub Ukr/Eng

Жанр: фентезі, сімейний, дитячий, пригодницький
Країна: США
Кінокомпанія: DisneyToon Studios
Режисер: Бредлі Реймонд
Актори: Майкл Шин (Michael Sheen), Мей Уітман (Mae Whitman), Крістін Ченоует (Kristin Chenoweth), Памела Адлон (Pamela Adlon), Люсі Лью (Lucy Liu), Рейвен Симон (Raven-Symoné), Джессі Макартні (Jesse McCartney), Джеф Бенет (Jeff Bennett), Роб Паулсен (Rob Paulsen)

Сюжет:
Казковий світ фей, чарівного пилу та неймовірних пригод – аж ніяк не фантазія маленької
дівчинки. Як і кожна дитина, вона вірила у цей світ, а він в свою чергу пустив її до
себе. Дівчинка зважилась допомогти справжнім феям, яким треба визволити подругу з полону,
разом подолати труднощі, та згодом стати найкращими друзями.




Тривалість: 01:16:27
Якість:

Відео: кодек: розмір кадру: 1920 х 1080 бітрейт: 7580 кб/с
Аудіо #1: мова: українська переклад: професійний дубльований кодек: 5.1 бітрейт: 640 кб/с | Blu-ray CEE |
Аудіо #2: мова: англійська переклад: оригінал кодек: 5.1 бітрейт: 1509 кб/с
Субтитри #1-2: (форсовані, повні) мова: українська тип: програмні (м'які) формат: *.srt
Субтитри #3-4: (Full, SDH) мова: англійська тип: програмні (м'які) формат: *.srt
Про файл:
General
Unique ID : 168573765089309877362736145751958037754 (0x7ED2204ECC41894F4BD00672DAE724FA)
Complete name : G:\Torrents2\MULT\Tinker.Bell.and.the.Great.Fairy.Rescue.2010.1080p..Ukr.Eng.
Format :
Format version : Version 4
File size : 5.18 GiB
Duration : 1 h 16 min
Overall bit rate : 9 701 kb/s
Movie name : Tinker Bell and the Great Fairy Rescue 2010 by sergiyko
Encoded date : UTC 2019-04-25 18:49:18
Writing application : v33.1.0 ('Primrose') 64-bit
Writing library : libebml v1.3.7 + v1.5.0
Cover : Yes
Attachments : cover.jpeg

Video
ID : 1
Format : AVC
Format/Info : Advanced Video Codec
Format profile : [email protected]
Format settings : CABAC / 4 Ref Frames
Format settings, CABAC : Yes
Format settings, ReFrames : 4 frames
Codec ID : V_MPEG4/ISO/AVC
Duration : 1 h 16 min
Bit rate : 7 549 kb/s
Width : 1 920 pixels
Height : 1 080 pixels
Display aspect ratio : 16:9
Frame rate mode : Constant
Frame rate : 23.976 (24000/1001) FPS
Color space : YUV
Chroma subsampling : 4:2:0
Bit depth : 8 bits
Scan type : Progressive
Bits/(Pixel*Frame) : 0.152
Stream size : 4.03 GiB (78%)
Title : Tinker Bell and the Great Fairy Rescue 2010 1080p
Writing library : core 104 r1713 c276662
Encoding settings : cabac=1 / ref=4 / deblock=1:-3:-3 / analyse=0x3:0x113 / me=tesa / subme=10 / psy=1 / psy_rd=0.60:0.00 / mixed_ref=1 / me_range=16 / chroma_me=1 / trellis=2 / 8x8dct=1 / cqm=0 / deadzone=21,11 / fast_pskip=0 / chroma_qp_offset=-2 / threads=12 / sliced_threads=0 / nr=0 / decimate=0 / interlaced=0 / constrained_intra=0 / bframes=6 / b_pyramid=2 / b_adapt=2 / b_bias=0 / direct=3 / weightb=1 / open_gop=0 / weightp=2 / keyint=250 / keyint_min=23 / scenecut=40 / intra_refresh=0 / rc=2pass / mbtree=0 / bitrate=7549 / ratetol=1.0 / qcomp=0.60 / qpmin=10 / qpmax=51 / qpstep=4 / cplxblur=20.0 / qblur=0.5 / ip_ratio=1.40 / pb_ratio=1.30 / aq=1:0.90
Language : English
Default : Yes
Forced : Yes

Audio #1
ID : 2
Format : AC-3
Format/Info : Audio Coding 3
Commercial name : Dolby Digital
Codec ID : A_AC3
Duration : 1 h 16 min
Bit rate mode : Constant
Bit rate : 640 kb/s
Channel(s) : 6 channels
Channel layout : L R C LFE Ls Rs
Sampling rate : 48.0 kHz
Frame rate : 31.250 FPS (1536 SPF)
Bit depth : 16 bits
Compression mode : Lossy
Stream size : 350 MiB (7%)
Title : DUB 6ch 640kbps
Language : Ukrainian
Service kind : Complete Main
Default : Yes
Forced : Yes

Audio #2
ID : 3
Format :
Format/Info : Digital Theater Systems
Codec ID : A_DTS
Duration : 1 h 16 min
Bit rate mode : Constant
Bit rate : 1 509 kb/s
Channel(s) : 6 channels
Channel layout : C L R Ls Rs LFE
Sampling rate : 48.0 kHz
Frame rate : 93.750 FPS (512 SPF)
Bit depth : 24 bits
Compression mode : Lossy
Stream size : 825 MiB (16%)
Title : Original
Language : English
Default : No
Forced : No

Text #1
ID : 4
Format : UTF-8
Codec ID : S_TEXT/UTF8
Codec ID/Info : UTF-8 Plain Text
Duration : 18 min 42 s
Bit rate : 4 b/s
Count of elements : 13
Stream size : 640 Bytes (0%)
Title : Українські субтитри (написи)
Language : Ukrainian
Default : Yes
Forced : Yes

Text #2
ID : 5
Format : UTF-8
Codec ID : S_TEXT/UTF8
Codec ID/Info : UTF-8 Plain Text
Duration : 1 h 11 min
Bit rate : 87 b/s
Count of elements : 771
Stream size : 46.4 KiB (0%)
Title : Українські субтитри
Language : Ukrainian
Default : No
Forced : No

Text #3
ID : 6
Format : UTF-8
Codec ID : S_TEXT/UTF8
Codec ID/Info : UTF-8 Plain Text
Duration : 1 h 11 min
Bit rate : 55 b/s
Count of elements : 758
Stream size : 29.0 KiB (0%)
Title : English subtitles
Language : English
Default : No
Forced : No

Text #4
ID : 7
Format : UTF-8
Codec ID : S_TEXT/UTF8
Codec ID/Info : UTF-8 Plain Text
Duration : 1 h 15 min
Bit rate : 59 b/s
Count of elements : 993
Stream size : 33.0 KiB (0%)
Title : English subtitles
Language : English
Default : No
Forced : No

Menu
00:00:00.000 : :1. Main Titles
00:05:40.549 : :2. The Human House
00:11:25.226 : :3. Fairies Welcome
00:16:54.889 : :4. Captivity
00:22:36.981 : :5. I Just Want to Be Your Friend
00:27:39.533 : :6. Rescue Party
00:35:22.829 : :7. Heading Home
00:42:18.202 : :8. Fixing the Leaks
00:48:14.266 : :9. Learning to Fly
00:56:11.159 : :10. Fairies Are Real
00:59:58.929 : :11. Saving Vidia
01:09:48.393 : :12. End Credits
Скріншоти:



 Трекер:    Зареєстрований   

Завантажити / скачати мультфільм українською



відео для новачків



 Зареєстрований:   2019-04-25 20:56
 Розмір:   5.18 GB 
 Оцінка мультфільму:   10/10 (Голосів: 3)
   
Ваш часовий пояс: GMT + 2 Години

Нова тема   Відповісти