Смертельний лабіринт / Escape Room (2019)

Нові коментарі

Нова тема   Відповісти
Автор Повідомлення
surikmas 
Новенький


З нами з: 26.03.19
Востаннє: 15.09.19
Повідомлень: 14

2019-04-25 16:51  
Смертельний лабіринт / Escape Room (2019)



Альтернативні постери




Жанр: трилер
Країна: США, Канада



Кінокомпанія: Original Film
Режисер: Адам Робітел
Актори: Тейлор Расселл, Логан Міллер, Джей Елліс, Тайлер Лабін, Дебора Енн Волл, Нік Додані, Йорік ван Вагенінген, Корнеліус Джині мол., Рассел Кроус, Барт Фаш

Сюжет:
Шість незнайомців отримують анонімні запрошення взяти участь у тесті нової квест-кімнати. Вони приходять за вказаною у запрошенні адресою, двері кімнати закриваються, і молоді люди опиняються в ситуації, яку не можуть контролювати. І якщо вони не встигнуть знайти нову підказку і розгадати її, вони помруть.


Тривалість: 01:39:38
Якість: Джерело ріпа
Відео:
кодек:
розмір кадру: 688 x 288
бітрейт: 909 кб/с

Аудіо:
мова: українська
переклад: професійний дубльований
кодек: MP3
бітрейт: 128 кб/с

Джерело озвучення: Ledoyen
Info
General
Complete name : D:\Изготовление рипа\Смертельний лабіринт (Escape Room) (DUB UKR).(2019) by ExKinoRay & Shkiper.avi
Format : AVI
Format/Info : Audio Video Interleave
File size : 745 MiB
Duration : 1 h 39 min
Overall bit rate : 1 046 kb/s
Writing application : VirtualDubMod 1.5.10.3 | www.virtualdub-fr.org || (build 2550/release)
Writing library : VirtualDubMod build 2550/release

Video
ID : 0
Format : MPEG-4 Visual
Format profile : Advanced [email protected]
Format settings : BVOP1 / Custom Matrix
Format settings, BVOP : 1
Format settings, QPel : No
Format settings, GMC : No warppoints
Format settings, Matrix : Custom
Codec ID :
Codec ID/Hint :
Duration : 1 h 39 min
Bit rate : 909 kb/s
Width : 688 pixels
Height : 288 pixels
Display aspect ratio : 2.40:1
Frame rate : 23.976 (24000/1001) FPS
Original frame rate : 23.976 (23976/1000) FPS
Color space : YUV
Chroma subsampling : 4:2:0
Bit depth : 8 bits
Scan type : Progressive
Compression mode : Lossy
Bits/(Pixel*Frame) : 0.191
Stream size : 648 MiB (87%)
Writing library : 73

Audio
ID : 1
Format : MPEG Audio
Format version : Version 1
Format profile : Layer 3
Codec ID : 55
Codec ID/Hint : MP3
Duration : 1 h 39 min
Bit rate mode : Constant
Bit rate : 128 kb/s
Channel(s) : 2 channels
Sampling rate : 48.0 kHz
Frame rate : 41.667 FPS (1152 SPF)
Compression mode : Lossy
Stream size : 91.2 MiB (12%)
Alignment : Aligned on interleaves
Interleave, duration : 42 ms (1.00 video frame)
Interleave, preload duratio : 504 ms
Writing library : LAME3.99r
Encoding settings : -m s -V 4 -q 2 -lowpass 17 -b 128
Скріншоти
Особиста оцінка: 6 - третій сорт - не брак


 Трекер:    Зареєстрований   

Завантажити / скачати фільм українською



відео для новачків



 Зареєстрований:   2019-04-25 16:51
 Розмір:   745 MB 
 Оцінка фільму:   7.1/10 (Голосів: 7)
   
Ваш часовий пояс: GMT + 2 Години

Нова тема   Відповісти