Лісові мандрівники (1951)

Нові коментарі

Нова тема   Відповісти
Автор Повідомлення
surikmas 
Новенький


З нами з: 26.03.19
Востаннє: 23.10.20
Повідомлень: 17

2019-04-24 15:08  
Лісові мандрівники (1951)

Лісові мандрівники (1951)


Жанр: анімація
Країна: СРСР



Кінокомпанія: Союзмультфільм
Режисер: Мстислав Пащенко
Ролі озвучують: Юлія Юльська, Тетяна Баришева, Олександра Панова, Володимир Ратомський, Юрій Хржановський, Вікторія Іванова, Григорій Бєлов, Маргарита Докторова

Сюжет:
Неврожайний рік в лісі, переслідування хижої Куниці змушують сім'ю білок шукати нові місця....


Тривалість: 00:20:18
Якість:
Відео:
кодек:
розмір кадру: 624 x 480
бітрейт: 1800 кб/с

Аудіо:
мова: українська
переклад: багатоголосий закадровий
кодек: MP3
бітрейт: 128 кб/с

Джерело озвучення: Невідомо
Info


General
Complete name : D:\Лесные путешественники (UKR-MVO) by ExKinoRay & Shkiper.avi
Format : AVI
Format/Info : Audio Video Interleave
File size : 281 MiB
Duration : 20 min 17 s
Overall bit rate : 1 938 kb/s
Writing application : VirtualDubMod 1.5.10.3 | www.virtualdub-fr.org || (build 2550/release)
Writing library : VirtualDubMod build 2550/release

Video
ID : 0
Format : MPEG-4 Visual
Format profile : Advanced [email protected]
Format settings : BVOP1 / Custom Matrix
Format settings, BVOP : 1
Format settings, QPel : No
Format settings, GMC : No warppoints
Format settings, Matrix : Custom
Codec ID :
Codec ID/Hint :
Duration : 20 min 17 s
Bit rate : 1 800 kb/s
Width : 624 pixels
Height : 480 pixels
Display aspect ratio : 4:3
Frame rate : 25.000 FPS
Color space : YUV
Chroma subsampling : 4:2:0
Bit depth : 8 bits
Scan type : Progressive
Compression mode : Lossy
Bits/(Pixel*Frame) : 0.240
Stream size : 261 MiB (93%)
Writing library : 73

Audio
ID : 1
Format : MPEG Audio
Format version : Version 1
Format profile : Layer 3
Codec ID : 55
Codec ID/Hint : MP3
Duration : 20 min 17 s
Bit rate mode : Constant
Bit rate : 128 kb/s
Channel(s) : 1 channel
Sampling rate : 44.1 kHz
Frame rate : 38.281 FPS (1152 SPF)
Compression mode : Lossy
Stream size : 18.6 MiB (7%)
Alignment : Split accross interleaves
Interleave, duration : 40 ms (1.00 video frame)
Interleave, preload duratio : 500 ms
Writing library : LAME3.99r
Encoding settings : -m m -V 4 -q 2 -lowpass 20.5 -b 128
Скріншоти
Джерело:
Особиста оцінка: 10 - без зайвих вагань рекомендую всім!


Золотий реліз (завантажене не впливає на рейтинг)
 Трекер:    Зареєстрований   

Завантажити / скачати мультфільм українською



відео для новачків



 Зареєстрований:   2019-04-24 15:08
 Розмір:   281 MB 
 Оцінка мультфільму:   8.2/10 (Голосів: 5)
   
Ваш часовий пояс: GMT + 2 Години

Нова тема   Відповісти