Піарниця (Сезон 1) / Flack (Season 1) (2019) 720p Ukr/Eng

Нові коментарі

Нова тема   Відповісти
Автор Повідомлення
Anonymous 







2019-04-23 22:08  
Піарниця (Сезон 1) / Flack (Season 1) (2019) 720p Ukr/Eng

Піарниця (Сезон 1) / Flack (Season 1) (2019) 720p Ukr/Eng


Жанр: комедія
Країна: Великобританія



Кінокомпанія: Casm Films, Hat Trick Productions, UKTV
Режисер: Пітер Каттанео
Актори: Анна Паквін, Лідія Вілсон, Ребекка Бенсон, Руфус Джонс, Женев'єва Енджелсон, Арінзе Кін, Софі Оконедо, Марк Уоррен, Бредлі Вітфорд, Мішель Моран

Сюжет:
Симпатична комедійна драма про талановиту піарницю, яка добре знає як допомогти клієнтам, але не може навести лад у власному житті.

Головна героїня – талановита дівчина-маркетолог на ім'я Робін. Вона справжній геній піару до якої стоїть ціла черга різноманітних зірок шоу-бізнесу, політиків та публічних персон. Але робота у PR-сфері вимагає повної, майже цілодобової занятості, тому особисте життя Робін більше нагадує моторошний трилер: сварки з близькими, безсонні ночі та негаразди зі здоров’ям та психікою. За лаштунками динамічної роботи завжди приховується чимала купа неприємностей…


Тривалість: 1 серія: ~ 43 хв. (цілком серій: 6)
Перелік серій
1. Anthony
2. Summer
3. Dan
4. Brooke
5. Rodney
6. Patrick
Якість: 720p
Відео:
кодек:
розмір кадру: 1280 х 534
бітрейт: ~ 1 680 кб/с

Аудіо # 1:
мова: українська
переклад: двоголосий закадровий
кодек: 5.1 ( 2.0 - 6 серія)
бітрейт: 384 кб/с (192 кб/с - 6 серія)

Аудіо # 2:
мова: англійська
переклад: оригінал
кодек: 5.1
бітрейт: 384 кб/с

Джерело озвучення:
DniproFilm
Info
General
Unique ID : 281823670456891485628272631599382935496 (0xD40543BCA11A1B9F13EA99EA453437C8)
Complete name : Flack S01E01 (2019) 720p [Ukr.Eng] [Hurtom].
Format :
Format version : Version 4
File size : 739 MiB
Duration : 42 min 8 s
Overall bit rate : 2 453 kb/s
Movie name : Піарниця (Сезон 1, серія 1) (2019)
Encoded date : UTC 2019-04-23 14:39:07
Writing application : v30.1.0 ('Forever And More') 64-bit
Writing library : libebml v1.3.6 + v1.4.9
Cover : Yes
Attachments : cover.jpg

Video
ID : 1
Format : AVC
Format/Info : Advanced Video Codec
Format profile : [email protected]
Format settings : CABAC / 5 Ref Frames
Format settings, CABAC : Yes
Format settings, ReFrames : 5 frames
Codec ID : V_MPEG4/ISO/AVC
Duration : 42 min 8 s
Bit rate : 1 682 kb/s
Width : 1 280 pixels
Height : 534 pixels
Display aspect ratio : 2.40:1
Frame rate mode : Constant
Frame rate : 25.000 FPS
Color space : YUV
Chroma subsampling : 4:2:0
Bit depth : 8 bits
Scan type : Progressive
Bits/(Pixel*Frame) : 0.098
Stream size : 507 MiB (69%)
Writing library : core 157 r2935 545de2f
Encoding settings : cabac=1 / ref=5 / deblock=1:0:0 / analyse=0x3:0x113 / me=hex / subme=8 / psy=1 / psy_rd=1.00:0.00 / mixed_ref=1 / me_range=16 / chroma_me=1 / trellis=2 / 8x8dct=1 / cqm=0 / deadzone=21,11 / fast_pskip=1 / chroma_qp_offset=-2 / threads=12 / lookahead_threads=2 / sliced_threads=0 / nr=0 / decimate=1 / interlaced=0 / bluray_compat=0 / constrained_intra=0 / bframes=3 / b_pyramid=2 / b_adapt=1 / b_bias=0 / direct=3 / weightb=1 / open_gop=0 / weightp=2 / keyint=250 / keyint_min=25 / scenecut=40 / intra_refresh=0 / rc_lookahead=50 / rc=crf / mbtree=1 / crf=18.0 / qcomp=0.60 / qpmin=0 / qpmax=69 / qpstep=4 / ip_ratio=1.40 / aq=1:1.00
Language : English
Default : Yes
Forced : No

Audio #1
ID : 2
Format : AC-3
Format/Info : Audio Coding 3
Commercial name : Dolby Digital
Codec ID : A_AC3
Duration : 42 min 8 s
Bit rate mode : Constant
Bit rate : 384 kb/s
Channel(s) : 6 channels
Channel layout : L R C LFE Ls Rs
Sampling rate : 48.0 kHz
Frame rate : 31.250 FPS (1536 SPF)
Bit depth : 16 bits
Compression mode : Lossy
Stream size : 116 MiB (16%)
Language : Ukrainian
Service kind : Complete Main
Default : Yes
Forced : Yes

Audio #2
ID : 3
Format : AC-3
Format/Info : Audio Coding 3
Commercial name : Dolby Digital
Codec ID : A_AC3
Duration : 42 min 8 s
Bit rate mode : Constant
Bit rate : 384 kb/s
Channel(s) : 6 channels
Channel layout : L R C LFE Ls Rs
Sampling rate : 48.0 kHz
Frame rate : 31.250 FPS (1536 SPF)
Bit depth : 16 bits
Compression mode : Lossy
Stream size : 116 MiB (16%)
Language : English
Service kind : Complete Main
Default : No
Forced : No
Скріншоти
Джерело:


Авторський реліз (завантажувати можна без реєстрації)
 Трекер:    Зареєстрований   

Завантажити / скачати серіал українською



відео для новачків



 Зареєстрований:   2019-04-23 22:08
 Розмір:   4.08 GB 
 Оцінка серіалу:   9.5/10 (Голосів: 11)
   
Anonymous 







2019-04-23 22:13  
Цитата:
Піарниця (Сезон 1)

В 6 серії серіал названо як "Піарщиця" Confused

Ваш часовий пояс: GMT + 2 Години

Нова тема   Відповісти